<?xml version="1.0" standalone="no"?>
<!DOCTYPE svg PUBLIC "-//W3C//DTD SVG 1.1//EN" "http://www.w3.org/Graphics/SVG/1.1/DTD/svg11.dtd" >
<svg xmlns="http://www.w3.org/2000/svg" width="100%" height="100%">
<metadata>
Created Thu Feb 25 12:50:09 2016 by PreussType
Copyright (c) 2016 by Hubert Jocham. All rights reserved.
</metadata>
<defs>
<font id="HamburgSans-Regular" horiz-adv-x="612" >
  <font-face 
    font-family="HamburgSans"
    font-weight="400"
    font-stretch="normal"
    units-per-em="1000"
    panose-1="2 11 5 3 4 0 0 2 0 3"
    ascent="800"
    descent="-200"
    x-height="487"
    cap-height="715"
    bbox="-434 -300 964 924"
    underline-thickness="50"
    underline-position="-50"
    unicode-range="U+000D-FB02"
  />
<missing-glyph horiz-adv-x="500" 
d="M410 -250h-317v1000h317v-1000zM168 683v-33h65v-37h-66v-33h166v33h-66v37h66v33h-165zM167 554v-104h166v34h-66v70h-100zM233 484h-33v36h33v-36zM167 423v-33h66v-37h-66v-33h100v70h66v33h-166zM300 363v-66h-133v-34h166v100h-33zM233 241v-56h34v23h33v-47h-100
v80h-33v-113h166v113h-100zM167 68v-113h166v113h-166zM300 -12h-100v47h100v-47zM167 -68v-33h70l-70 -47v-33h166v33h-102l70 47h32v33h-166z" />
    <glyph glyph-name="fi" unicode="fi" horiz-adv-x="601" 
d="M201 487h317v-487h-81v434h-236v-434h-81v434h-90v53h90v57q0 38 13 71t38.5 57.5t64 38.5t88.5 14q47 0 81.5 -7t58.5 -16q27 -10 46 -23l8 -77q-22 18 -51 33q-26 13 -61 22.5t-81 9.5q-67 0 -95.5 -31.5t-28.5 -84.5v-64z" />
    <glyph glyph-name="fl" unicode="fl" horiz-adv-x="613" 
d="M330 725q48 0 84.5 -8t62.5 -17q30 -12 53 -26v-674h-81v643q-14 7 -33 13q-16 5 -37 9t-47 4q-69 0 -100 -29.5t-31 -90.5v-62h148l5 -53h-153v-434h-81v434h-85v53h85v57q0 80 53.5 130.5t156.5 50.5z" />
    <glyph glyph-name=".notdef" horiz-adv-x="500" 
d="M410 -250h-317v1000h317v-1000zM168 683v-33h65v-37h-66v-33h166v33h-66v37h66v33h-165zM167 554v-104h166v34h-66v70h-100zM233 484h-33v36h33v-36zM167 423v-33h66v-37h-66v-33h100v70h66v33h-166zM300 363v-66h-133v-34h166v100h-33zM233 241v-56h34v23h33v-47h-100
v80h-33v-113h166v113h-100zM167 68v-113h166v113h-166zM300 -12h-100v47h100v-47zM167 -68v-33h70l-70 -47v-33h166v33h-102l70 47h32v33h-166z" />
    <glyph glyph-name=".null" horiz-adv-x="0" 
 />
    <glyph glyph-name=".null" horiz-adv-x="0" 
 />
    <glyph glyph-name="nonmarkingreturn" unicode="&#xd;" horiz-adv-x="250" 
 />
    <glyph glyph-name="space" unicode=" " horiz-adv-x="279" 
 />
    <glyph glyph-name="exclam" unicode="!" horiz-adv-x="258" 
d="M84 715h88l-12 -486h-65zM86 113h81v-113h-81v113z" />
    <glyph glyph-name="quotedbl" unicode="&#x22;" horiz-adv-x="402" 
d="M83 715h83l-11 -218h-62zM237 715h82l-11 -218h-62z" />
    <glyph glyph-name="numbersign" unicode="#" horiz-adv-x="610" 
d="M437 419l-17 -119h116v-57h-124l-33 -243h-60l34 243h-129l-33 -243h-61l34 243h-104v57h112l17 119h-115v57h123l34 239h59l-33 -239h128l34 239h59l-33 -239h105v-57h-113zM377 419h-128l-17 -119h129z" />
    <glyph glyph-name="dollar" unicode="$" 
d="M548 192q0 -80 -57 -132t-160 -59v-139h-57v139q-50 3 -88 13t-64 21q-31 13 -53 29l-7 91q29 -26 67 -46q34 -19 77.5 -33t98.5 -14q79 0 117 31t38 85q0 27 -10 47t-28.5 35t-45 26.5t-59.5 22.5l-75 26q-38 13 -70 29.5t-54.5 39t-35 52.5t-12.5 70q0 76 51.5 128.5
t152.5 59.5v139h57v-139q49 -2 85 -11.5t60 -20.5q27 -12 46 -27l11 -101q-26 27 -60 49q-32 20 -74 34.5t-97 14.5q-75 0 -110 -31.5t-35 -85.5q0 -48 31.5 -74.5t85.5 -46.5l76 -25q43 -15 79 -31t62.5 -38.5t41.5 -53t15 -74.5z" />
    <glyph glyph-name="percent" unicode="%" horiz-adv-x="627" 
d="M165 363q-60 0 -90.5 46.5t-30.5 134.5q0 89 31 135t91 46q61 0 91 -46t30 -135q0 -88 -31 -134.5t-91 -46.5zM442 715h61l-316 -715h-62zM165 402q69 0 69 143q0 141 -69 141q-34 0 -50.5 -34.5t-16.5 -106.5q0 -143 67 -143zM460 -8q-60 0 -90.5 46.5t-30.5 134.5
q0 89 31 135t91 46t90.5 -46t30.5 -135q0 -88 -31 -134.5t-91 -46.5zM460 31q68 0 68 143q0 141 -68 141q-34 0 -50.5 -34.5t-16.5 -106.5q0 -143 67 -143z" />
    <glyph glyph-name="ampersand" unicode="&#x26;" horiz-adv-x="800" 
d="M746 54l-10 -51q-7 -4 -16 -7q-9 -2 -20 -4t-25 -2q-37 0 -82.5 18.5t-93.5 50.5q-45 -32 -98 -50.5t-114 -18.5q-48 0 -88 12.5t-69 37t-45.5 59.5t-16.5 80q0 38 12.5 67t33.5 51.5t49 40t59 32.5q-20 39 -30.5 79t-10.5 78q0 40 13 74.5t38 59.5t60 39.5t78 14.5
q75 0 118.5 -40.5t43.5 -102.5q0 -48 -20 -80.5t-52 -55.5t-71.5 -39.5t-78.5 -33.5q35 -65 88 -123.5t113 -103.5q46 50 70.5 116.5t24.5 138.5q0 17 -1 31t-3 24q-2 11 -4 20l68 -14q1 -7 3 -15q1 -7 1.5 -15.5t0.5 -17.5q0 -81 -30 -158.5t-87 -137.5q43 -26 85 -40
t80 -14h27zM259 535q0 -32 8.5 -66t23.5 -68q33 14 64 29.5t54.5 34.5t37.5 44t14 59q0 44 -23.5 72t-69.5 28q-54 0 -81.5 -37t-27.5 -96zM306 47q43 0 80.5 11.5t69.5 31.5q-62 47 -118 108.5t-95 130.5q-38 -23 -63.5 -56.5t-25.5 -86.5q0 -64 41.5 -101.5t110.5 -37.5z
" />
    <glyph glyph-name="quotesingle" unicode="'" horiz-adv-x="250" 
d="M83 715h84l-11 -218h-63z" />
    <glyph glyph-name="parenleft" unicode="(" horiz-adv-x="318" 
d="M236 -123q-19 19 -47.5 56.5t-55 91.5t-45.5 122.5t-19 149.5t19 149.5t45.5 122t55 90.5t47.5 56h52q-17 -17 -40 -53t-43.5 -89t-35 -122.5t-14.5 -153.5q0 -85 14.5 -155t35 -123t43.5 -89t40 -53h-52z" />
    <glyph glyph-name="parenright" unicode=")" horiz-adv-x="318" 
d="M30 -123q17 17 40 53t43.5 89t35 123t14.5 155q0 84 -14.5 153.5t-35 122.5t-43.5 89t-40 53h52q19 -19 47.5 -56t55 -90.5t45.5 -122t19 -149.5t-19 -149.5t-45.5 -122.5t-55 -91.5t-47.5 -56.5h-52z" />
    <glyph glyph-name="asterisk" unicode="*" horiz-adv-x="558" 
d="M145 425l102 106l-146 28l24 73l133 -65l-19 148h77l-21 -149l135 67l23 -74l-146 -26l102 -107l-63 -45l-68 129l-70 -129z" />
    <glyph glyph-name="plus" unicode="+" 
d="M276 239h-187v59h187v188h59v-188h187v-59h-187v-189h-59v189z" />
    <glyph glyph-name="comma" unicode="," horiz-adv-x="251" 
d="M101 101h94l-82 -216h-62z" />
    <glyph glyph-name="hyphen" unicode="-" horiz-adv-x="410" 
d="M69 299h272v-61h-272v61z" />
    <glyph glyph-name="period" unicode="." horiz-adv-x="251" 
d="M85 114h81v-114h-81v114z" />
    <glyph glyph-name="slash" unicode="/" horiz-adv-x="465" 
d="M357 725h62l-310 -735h-64z" />
    <glyph glyph-name="zero" unicode="0" 
d="M305 -9q-54 0 -98 21.5t-75.5 66.5t-48.5 114.5t-17 165.5t17 165t48 114t76 66t100 21q56 0 100 -21t74.5 -66t47 -114t16.5 -165t-17.5 -165.5t-49 -114.5t-76 -66.5t-97.5 -21.5zM306 48q37 0 65.5 17.5t48 55t30 96.5t10.5 143q0 83 -10 141t-29.5 95.5t-48.5 54.5
t-66 17t-66 -17t-48.5 -54.5t-29.5 -95.5t-10 -141q0 -84 10 -143t29.5 -96.5t48.5 -55t66 -17.5z" />
    <glyph glyph-name="one" unicode="1" 
d="M72 59h205v575l-159 -93l6 66l178 108h61v-656h183l-4 -59h-466z" />
    <glyph glyph-name="two" unicode="2" 
d="M551 59l-5 -59h-469v5q0 41 17 78.5t44.5 73t64 68t75.5 62.5l52 40q59 47 89 94t30 108q0 59 -33.5 95.5t-104.5 36.5q-51 0 -93 -14.5t-72 -31.5q-35 -21 -63 -47l9 78q27 22 62 40q31 16 71.5 27.5t92.5 11.5q109 0 163 -52.5t54 -140.5q0 -77 -40 -138.5t-107 -111.5
l-53 -40q-26 -19 -53 -41t-50.5 -46t-41 -48t-23.5 -48h384z" />
    <glyph glyph-name="three" unicode="3" 
d="M400 373q14 -3 37.5 -12.5t46.5 -29t40 -51.5t17 -80q0 -45 -18.5 -83.5t-51.5 -66.5t-78.5 -44t-99.5 -16q-55 0 -95.5 11t-68.5 25q-32 15 -54 35l-5 84q24 -25 57 -45q30 -19 70 -32.5t94 -13.5q75 0 119.5 41.5t44.5 107.5q0 70 -43 102.5t-110 32.5h-113v54h103
q62 0 102 37t40 105q0 58 -35.5 92.5t-104.5 34.5q-48 0 -88 -13.5t-68 -29.5q-34 -19 -61 -43l8 75q25 21 58 38q30 15 68.5 26t87.5 11q104 0 162.5 -48t58.5 -134q0 -39 -14 -68.5t-33.5 -50.5t-40 -33.5t-32.5 -17.5z" />
    <glyph glyph-name="four" unicode="4" 
d="M570 180h-109v-180h-83v180h-332v51l321 484h94v-475h109v-60zM378 240v388l-252 -388h252z" />
    <glyph glyph-name="five" unicode="5" 
d="M226 451q156 -13 237 -70.5t81 -168.5q0 -47 -17.5 -87.5t-49 -70t-76.5 -46.5t-100 -17q-54 0 -95.5 10.5t-70.5 24.5q-33 15 -58 34l-7 82q28 -24 64 -43q32 -18 72.5 -31t90.5 -13q79 0 118 43t39 112q0 48 -18.5 81t-53.5 55t-84 34t-111 17l-79 6l41 312h349l6 -69
h-302l-23 -191z" />
    <glyph glyph-name="six" unicode="6" 
d="M339 459q44 0 82 -14t66 -42.5t44 -71.5t16 -102q0 -55 -18 -99t-48.5 -75t-70.5 -48t-85 -17q-55 0 -101.5 20.5t-81 64t-54 111t-19.5 161.5q0 93 22.5 164t61.5 118.5t92 71.5t114 24q35 0 61 -5.5t43 -11.5q21 -7 35 -17l7 -72q-16 13 -37 24q-20 9 -46 16t-60 7
q-42 0 -80.5 -17t-67.5 -55t-46 -100.5t-17 -152.5q6 17 20.5 37.5t37.5 38.5t55.5 30t74.5 12zM324 44q63 0 103 48.5t40 136.5q0 83 -38 127.5t-107 44.5q-32 0 -60.5 -12t-49.5 -33.5t-33.5 -52t-12.5 -67.5q0 -43 12 -78.5t33 -60.5t50 -39t63 -14z" />
    <glyph glyph-name="seven" unicode="7" 
d="M549 715v-64l-294 -651h-85l291 651h-395l5 64h478z" />
    <glyph glyph-name="eight" unicode="8" 
d="M306 -10q-54 0 -99 13.5t-77.5 38.5t-51 61.5t-18.5 82.5q0 47 17 79t41 52.5t49.5 31.5t41.5 16q-15 5 -35.5 16t-39 31t-32 50t-13.5 73t15.5 78t44 60t68.5 38.5t89 13.5t89 -13t68.5 -37t44 -58t15.5 -76q0 -40 -13.5 -69.5t-33 -50t-40 -32t-34.5 -16.5
q17 -4 42 -14.5t49 -31t41 -53.5t17 -83q0 -46 -18.5 -83t-51.5 -63t-77.5 -40.5t-97.5 -14.5zM309 395q27 0 50.5 10.5t41.5 29t28.5 44.5t10.5 57q0 63 -34 99t-100 36q-64 0 -99 -36.5t-35 -100.5q0 -66 39 -102.5t98 -36.5zM307 44q75 0 118 38.5t43 107.5
q0 35 -12.5 61.5t-34 44.5t-50.5 27t-63 9t-63.5 -9t-51.5 -27t-35 -44.5t-13 -61.5q0 -69 42.5 -107.5t119.5 -38.5z" />
    <glyph glyph-name="nine" unicode="9" 
d="M287 725q56 0 102.5 -20.5t80.5 -64t53 -111t19 -161.5q0 -93 -22.5 -164t-61.5 -118.5t-91.5 -71.5t-113.5 -24q-35 0 -61 5.5t-44 11.5q-20 7 -35 17l-6 72q16 -13 37 -23q20 -10 46 -17t60 -7q42 0 80.5 17t67 55t45.5 100.5t17 152.5q-6 -17 -20 -37.5t-37 -38.5
t-56 -30t-75 -12q-44 0 -82 14t-66 42.5t-44 71.5t-16 102q0 55 18 99t48.5 75t71 48t85.5 17zM289 314q32 0 60.5 12t49.5 34t33.5 52t12.5 67q0 88 -43 140t-115 52q-63 0 -101.5 -48.5t-38.5 -136.5q0 -83 36.5 -127.5t105.5 -44.5z" />
    <glyph glyph-name="colon" unicode=":" horiz-adv-x="251" 
d="M85 486h81v-114h-81v114zM85 114h81v-114h-81v114z" />
    <glyph glyph-name="semicolon" unicode=";" horiz-adv-x="252" 
d="M93 486h81v-114h-81v114zM90 101h93l-77 -216h-61z" />
    <glyph glyph-name="less" unicode="&#x3c;" 
d="M89 239v61l433 177v-66l-363 -141l363 -142v-66z" />
    <glyph glyph-name="equal" unicode="=" 
d="M89 377h433v-58h-433v58zM89 218h433v-58h-433v58z" />
    <glyph glyph-name="greater" unicode="&#x3e;" horiz-adv-x="611" 
d="M88 128l365 142l-365 141v66l435 -177v-61l-435 -177v66z" />
    <glyph glyph-name="question" unicode="?" horiz-adv-x="438" 
d="M162 229q-2 8 -3 16q-2 7 -3 15.5t-1 16.5q0 33 12 58t30.5 46.5t39.5 41t39.5 40.5t30.5 46t12 57q0 43 -25 68t-82 25q-40 0 -73.5 -9.5t-57.5 -21.5q-28 -14 -51 -31l9 71q21 16 49 29q25 11 57.5 19.5t74.5 8.5q87 0 132.5 -43.5t45.5 -114.5q0 -39 -13 -68
t-32.5 -53t-42 -44.5t-42 -41.5t-32.5 -44.5t-13 -54.5v-32h-61zM151 113h81v-113h-81v113z" />
    <glyph glyph-name="at" unicode="@" horiz-adv-x="945" 
d="M491 -75q-89 0 -166 26t-134 76t-89.5 123.5t-32.5 168.5t33.5 170t91 127.5t134 80.5t162.5 28q92 0 164 -30t121.5 -79.5t75 -112.5t25.5 -130q0 -58 -16.5 -106.5t-45 -83.5t-68 -54t-85.5 -19q-37 0 -63 21t-31 56q-13 -23 -33 -40q-18 -17 -45 -29t-67 -12
q-60 0 -94 29.5t-34 79.5q0 30 11.5 55.5t42 45t82.5 33t133 20.5v45q0 36 -18 55t-69 19q-34 0 -63.5 -8.5t-51.5 -18.5q-25 -13 -47 -28l6 62q22 16 49 28q25 11 55 19.5t66 8.5q78 0 109.5 -35.5t31.5 -104.5v-206q0 -21 11.5 -36.5t34.5 -15.5q26 0 50.5 15t43.5 43
t30.5 66.5t11.5 86.5q0 63 -22 119t-64 98t-102.5 66.5t-136.5 24.5q-70 0 -132 -24t-108.5 -69t-73.5 -110t-27 -147q0 -90 28 -154t75.5 -105.5t111 -61t134.5 -19.5q77 0 130.5 14t88.5 31q41 20 67 45l-10 -57q-27 -25 -68 -45q-37 -18 -88.5 -31.5t-124.5 -13.5z
M431 158q32 0 57 10.5t41.5 28.5t25 42t8.5 51v34q-44 -4 -80.5 -11t-62 -19t-39.5 -30t-14 -45q0 -61 64 -61z" />
    <glyph glyph-name="A" unicode="A" horiz-adv-x="706" 
d="M485 234h-286l-83 -234h-77l271 715h84l273 -715h-95zM466 287l-127 340l-121 -340h248z" />
    <glyph glyph-name="B" unicode="B" horiz-adv-x="653" 
d="M438 375q16 -3 41 -12.5t48.5 -29t40.5 -51.5t17 -81q0 -51 -19 -89t-50.5 -63t-72.5 -37t-85 -12h-270v715h255q46 0 84.5 -10.5t66 -32.5t43 -56t15.5 -80q0 -37 -13 -65t-31 -47.5t-37.5 -31.5t-32.5 -17zM465 530q0 66 -36 98t-105 32h-150v-268h154q63 0 100 36.5
t37 101.5zM341 56q68 0 110.5 34t42.5 108q0 76 -43.5 108.5t-111.5 32.5h-165v-283h167z" />
    <glyph glyph-name="C" unicode="C" horiz-adv-x="678" 
d="M382 -9q-66 0 -123 21.5t-99.5 66.5t-66.5 114t-24 164t25 164t67.5 114.5t100 67.5t121.5 22q57 0 98 -9.5t69 -20.5q31 -14 53 -31l12 -104q-25 28 -60 50q-31 20 -72.5 35t-96.5 15q-50 0 -91.5 -17t-71.5 -53t-46.5 -92.5t-16.5 -135.5q0 -82 18 -139.5t50.5 -93.5
t76 -52.5t94.5 -16.5q49 0 89 9t68 21q33 12 59 29l-9 -63q-23 -18 -55 -32q-30 -14 -71 -23.5t-98 -9.5z" />
    <glyph glyph-name="D" unicode="D" horiz-adv-x="722" 
d="M314 715q72 0 134 -20t107.5 -62.5t71.5 -109.5t26 -162q0 -94 -27 -162.5t-74 -112.5t-110 -65t-135 -21h-219v715h226zM305 58q57 0 104.5 17t81.5 54t52.5 94t18.5 136t-18.5 135.5t-51.5 92.5t-80 53t-104 17h-133v-599h130z" />
    <glyph glyph-name="E" unicode="E" horiz-adv-x="586" 
d="M527 62l-6 -62h-433v715h430l5 -62h-348v-261h303v-54h-303v-276h352z" />
    <glyph glyph-name="F" unicode="F" horiz-adv-x="559" 
d="M175 386h301v-54h-301v-332h-87v715h417l5 -62h-335v-267z" />
    <glyph glyph-name="G" unicode="G" horiz-adv-x="722" 
d="M387 -9q-67 0 -125 21.5t-101 66.5t-67.5 114t-24.5 164t25.5 164.5t69.5 114.5t102.5 67t125.5 22q61 0 104 -10.5t70 -22.5q33 -15 54 -34l12 -98q-26 28 -61 50q-33 20 -75.5 35t-99.5 15q-52 0 -95.5 -17t-74.5 -53t-48.5 -92.5t-17.5 -135.5q0 -82 19.5 -139.5
t54 -93.5t80.5 -52.5t100 -16.5q32 0 58 3t44 7q22 4 39 10v189h-154v53h238v-263q-27 -19 -64 -34q-34 -14 -80 -24t-108 -10z" />
    <glyph glyph-name="H" unicode="H" horiz-adv-x="710" 
d="M622 715v-715h-86v338h-361v-338h-87v715h87v-323h361v323h86z" />
    <glyph glyph-name="I" unicode="I" horiz-adv-x="263" 
d="M88 715h87v-715h-87v715z" />
    <glyph glyph-name="J" unicode="J" horiz-adv-x="390" 
d="M146 -8q-24 0 -42 3.5t-30 7.5q-15 5 -25 11l-10 68q12 -6 27 -10q13 -5 30 -8t38 -3q38 0 62.5 22.5t24.5 80.5v551h86v-551q0 -47 -13.5 -80t-36 -53.5t-51.5 -29.5t-60 -9z" />
    <glyph glyph-name="K" unicode="K" horiz-adv-x="670" 
d="M286 357l-111 -121v-236h-87v715h86v-396l347 396h94l-268 -292l279 -423h-107z" />
    <glyph glyph-name="L" unicode="L" horiz-adv-x="560" 
d="M511 59l-5 -59h-418v715h87v-656h336z" />
    <glyph glyph-name="M" unicode="M" horiz-adv-x="844" 
d="M755 715v-715h-85v616l-221 -616h-75l-217 614v-614h-69v715h122l214 -618l218 618h113z" />
    <glyph glyph-name="N" unicode="N" horiz-adv-x="716" 
d="M628 715v-715h-99l-369 617v-617h-72v715h113l355 -598v598h72z" />
    <glyph glyph-name="O" unicode="O" horiz-adv-x="797" 
d="M397 -10q-73 0 -133.5 22.5t-104 68t-67 115t-23.5 163.5q0 93 25 161.5t69 114t104.5 68t132.5 22.5q74 0 134.5 -21.5t103.5 -66t66.5 -113.5t23.5 -164q0 -96 -25 -165.5t-69.5 -115t-105 -67.5t-131.5 -22zM398 48q111 0 174.5 74.5t63.5 237.5q0 161 -63.5 234
t-174.5 73q-54 0 -98 -18t-75 -56t-48 -96t-17 -138q0 -81 17 -140t48 -97t75 -56t98 -18z" />
    <glyph glyph-name="P" unicode="P" horiz-adv-x="625" 
d="M362 715q44 0 81.5 -12t64.5 -36t42.5 -59.5t15.5 -82.5q0 -46 -16 -82t-44 -60.5t-65.5 -37t-81.5 -12.5h-185v-333h-86v715h274zM340 389q68 0 103.5 34t35.5 102q0 133 -139 133h-166v-269h166z" />
    <glyph glyph-name="Q" unicode="Q" horiz-adv-x="797" 
d="M448 3q26 -47 57 -67.5t84 -20.5q25 0 44.5 3t32.5 6q17 4 29 9l-11 -63q-11 -8 -27 -15q-14 -6 -33.5 -10.5t-45.5 -4.5q-61 0 -116 38t-86 122q-69 3 -125.5 27t-97 69t-62.5 111.5t-22 156.5q0 92 25 159.5t69 112.5t104.5 67t132.5 22q74 0 134.5 -21t103.5 -65
t66.5 -112t23.5 -162q0 -86 -21 -150.5t-58 -109t-88.5 -70t-112.5 -32.5zM160 364q0 -80 17 -137.5t48 -94t75 -54t98 -17.5q56 0 100 17.5t74.5 54t47 94t16.5 138.5q0 80 -16.5 137t-47 93.5t-74.5 54t-100 17.5q-54 0 -98 -18t-75 -55t-48 -94t-17 -136z" />
    <glyph glyph-name="R" unicode="R" horiz-adv-x="634" 
d="M291 334h-117v-334h-86v715h279q43 0 80.5 -11.5t65 -35t43.5 -58t16 -80.5q0 -42 -14.5 -75.5t-39.5 -57.5t-58.5 -39t-72.5 -20l208 -338h-101zM174 390h172q29 0 54.5 9.5t44 27.5t29 43t10.5 56q0 64 -34.5 98.5t-103.5 34.5h-172v-269z" />
    <glyph glyph-name="S" unicode="S" horiz-adv-x="613" 
d="M305 -9q-57 0 -100 10t-73 23q-35 14 -61 32l-7 95q29 -27 67 -48q34 -20 77 -34t98 -14q81 0 119.5 31.5t38.5 87.5q0 28 -10 48t-28.5 35.5t-45.5 27.5t-61 24l-75 27q-38 14 -70 30.5t-55 39.5t-35.5 53.5t-12.5 71.5q0 42 15 77.5t44.5 61.5t73 40.5t101.5 14.5
q57 0 97.5 -9.5t67.5 -21.5q32 -14 53 -31l12 -102q-26 28 -60 50q-32 20 -74 35t-97 15q-75 0 -111 -32.5t-36 -87.5q0 -50 32.5 -77t86.5 -47l76 -26q43 -15 79 -31.5t62.5 -40t41.5 -55t15 -76.5q0 -43 -17 -79.5t-48.5 -62.5t-77 -40.5t-102.5 -14.5z" />
    <glyph glyph-name="T" unicode="T" horiz-adv-x="636" 
d="M361 652v-652h-87v652h-225l4 63h529l5 -63h-226z" />
    <glyph glyph-name="U" unicode="U" horiz-adv-x="699" 
d="M347 -10q-59 0 -107.5 15t-83.5 45.5t-54 77t-19 109.5v478h87v-472q0 -97 52 -142.5t139 -45.5q86 0 135 45.5t49 143.5v471h71v-470q0 -63 -19 -111t-54.5 -80t-85 -48t-110.5 -16z" />
    <glyph glyph-name="V" unicode="V" horiz-adv-x="681" 
d="M642 715l-260 -715h-84l-259 715h99l216 -621l209 621h79z" />
    <glyph glyph-name="W" unicode="W" horiz-adv-x="975" 
d="M936 715l-197 -715h-85l-172 569l-176 -569h-84l-183 715h96l142 -607l189 607h57l186 -610l148 610h79z" />
    <glyph glyph-name="X" unicode="X" horiz-adv-x="684" 
d="M640 0h-108l-198 305l-204 -305h-86l247 356l-243 359h109l192 -297l193 297h87l-237 -345z" />
    <glyph glyph-name="Y" unicode="Y" horiz-adv-x="674" 
d="M635 715l-256 -385v-330h-86v327l-254 388h107l204 -324l201 324h84z" />
    <glyph glyph-name="Z" unicode="Z" horiz-adv-x="635" 
d="M582 59l-7 -59h-516v59l402 597h-400l4 59h493v-59l-399 -597h423z" />
    <glyph glyph-name="bracketleft" unicode="[" horiz-adv-x="334" 
d="M84 715h206l4 -46h-135v-746h135l-4 -46h-206v838z" />
    <glyph glyph-name="backslash" unicode="\" horiz-adv-x="464" 
d="M45 725h62l312 -735h-63z" />
    <glyph glyph-name="bracketright" unicode="]" horiz-adv-x="334" 
d="M40 -77h135v746h-135l4 46h206v-838h-206z" />
    <glyph glyph-name="asciicircum" unicode="^" 
d="M276 486h60l177 -432h-66l-141 361l-141 -361h-67z" />
    <glyph glyph-name="underscore" unicode="_" horiz-adv-x="520" 
d="M9 -79h502v-58h-502v58z" />
    <glyph glyph-name="grave" unicode="`" horiz-adv-x="520" 
d="M115 705h105l106 -143h-67z" />
    <glyph glyph-name="a" unicode="a" horiz-adv-x="537" 
d="M280 496q54 0 88.5 -14t54.5 -37t27.5 -52.5t7.5 -59.5v-333h-78v76q-25 -38 -68.5 -62t-106.5 -24q-75 0 -110.5 34t-35.5 89q0 48 25 78.5t67.5 49t99.5 28t121 14.5h6v49q0 48 -25.5 72.5t-84.5 24.5q-40 0 -74.5 -9.5t-59.5 -20.5q-30 -14 -54 -31l9 71q22 16 51 29
q26 11 60.5 19.5t79.5 8.5zM227 48q35 0 63 12t47.5 32t30 47t10.5 57v40l-4 -1q-48 -4 -91 -11t-74.5 -19.5t-50 -33t-18.5 -52.5q0 -33 21.5 -52t65.5 -19z" />
    <glyph glyph-name="b" unicode="b" horiz-adv-x="581" 
d="M325 496q86 0 139 -62.5t53 -190.5q0 -64 -16.5 -111.5t-44.5 -79t-64.5 -46.5t-76.5 -15q-55 0 -93 23t-61 61v-75h-78v715h81v-309q25 41 65 65.5t96 24.5zM301 55q65 0 98 43.5t33 143.5q0 97 -31.5 143.5t-96.5 46.5q-28 0 -53.5 -12t-45 -35.5t-30.5 -59t-11 -83.5
t10.5 -83t29.5 -58t44 -34.5t53 -11.5z" />
    <glyph glyph-name="c" unicode="c" horiz-adv-x="497" 
d="M279 -9q-46 0 -85 14.5t-68 45t-45.5 77.5t-16.5 113q0 63 18 110.5t49 79t73 47.5t89 16q36 0 62.5 -6t43.5 -13q20 -9 34 -20l11 -86q-17 18 -39 33q-21 13 -47.5 22.5t-61.5 9.5q-70 0 -108.5 -44t-38.5 -144t41 -145.5t110 -45.5q34 0 60.5 5.5t44.5 11.5q22 7 39 17
l-11 -54q-15 -12 -37 -22q-20 -9 -48.5 -15.5t-68.5 -6.5z" />
    <glyph glyph-name="d" unicode="d" horiz-adv-x="581" 
d="M498 715v-715h-79v84q-25 -42 -65.5 -67.5t-97.5 -25.5q-85 0 -138.5 63t-53.5 190q0 65 16.5 112t44.5 78.5t64.5 46.5t76.5 15q54 0 91 -22t60 -58v299h81zM277 55q29 0 54 12t44.5 35.5t30.5 59t11 83.5t-10.5 83t-29.5 58t-43.5 34.5t-53.5 11.5q-65 0 -98 -43.5
t-33 -143.5q0 -97 31.5 -143.5t96.5 -46.5z" />
    <glyph glyph-name="e" unicode="e" horiz-adv-x="529" 
d="M148 241q2 -94 46.5 -140t128.5 -46q34 0 61 5.5t46 11.5q23 7 40 17l-11 -54q-16 -12 -38 -22q-21 -9 -50 -15.5t-70 -6.5q-53 0 -97 14.5t-75 45.5t-48 78t-17 113q0 125 59 188.5t159 63.5q88 0 138.5 -50t50.5 -156q0 -9 -0.5 -17.5t-0.5 -14.5q0 -8 -1 -15h-321z
M277 441q-60 0 -90.5 -39t-37.5 -109h247q0 148 -119 148z" />
    <glyph glyph-name="f" unicode="f" horiz-adv-x="380" 
d="M355 434h-154v-434h-81v434h-85v53h85v77q0 76 43.5 116t107.5 40q37 0 61.5 -9t25.5 -10l6 -63q-10 6 -23 10q-11 4 -26 7t-33 3q-34 0 -57.5 -18t-23.5 -72v-81h148z" />
    <glyph glyph-name="g" unicode="g" horiz-adv-x="579" 
d="M496 486v-502q0 -35 -11 -68t-36.5 -58.5t-68.5 -41.5t-108 -16q-43 0 -75.5 9.5t-54.5 20.5q-26 13 -45 30l-10 73q22 -18 50 -33q26 -13 60 -22.5t78 -9.5q68 0 104 29t36 85v114q-25 -38 -65 -62t-96 -24q-85 0 -137.5 60t-52.5 183q0 62 16 108t43.5 76t64 44.5
t76.5 14.5q55 0 93 -22t61 -59v71h78zM275 74q29 0 54 11t44.5 33.5t30.5 56t11 79.5t-10.5 79.5t-29.5 55.5t-43.5 33t-53.5 11q-65 0 -97 -42.5t-32 -136.5q0 -92 30.5 -136t95.5 -44z" />
    <glyph glyph-name="h" unicode="h" horiz-adv-x="563" 
d="M337 496q77 0 112.5 -41t35.5 -113v-342h-81v333q0 45 -19.5 72t-69.5 27q-30 0 -57.5 -11.5t-48.5 -32.5t-33 -50.5t-12 -66.5v-271h-81v715h81v-307q28 40 72 64t101 24z" />
    <glyph glyph-name="i" unicode="i" horiz-adv-x="247" 
d="M83 705h81v-111h-81v111zM83 486h81v-486h-81v486z" />
    <glyph glyph-name="j" unicode="j" horiz-adv-x="248" 
d="M83 705h82v-111h-82v111zM33 -202q-14 0 -25.5 2.5t-20.5 4.5q-9 4 -17 8l-5 54q6 -2 13 -4q6 -1 13.5 -2t16.5 -1q37 0 56 21.5t19 70.5v534h81v-529q0 -42 -10.5 -72.5t-28.5 -49.5t-42 -28t-50 -9z" />
    <glyph glyph-name="k" unicode="k" horiz-adv-x="523" 
d="M250 250l-86 -87v-163h-81v715h80v-481l231 252h88l-176 -179l188 -307h-94z" />
    <glyph glyph-name="l" unicode="l" horiz-adv-x="247" 
d="M83 715h81v-715h-81v715z" />
    <glyph glyph-name="m" unicode="m" horiz-adv-x="843" 
d="M625 496q73 0 106.5 -41t33.5 -113v-342h-81v331q0 45 -18 72t-63 27q-29 0 -54.5 -11t-44 -31.5t-29.5 -50t-11 -66.5v-271h-80v331q0 45 -18.5 72t-63.5 27q-29 0 -54 -11t-44 -31.5t-29.5 -50t-10.5 -66.5v-271h-81v486h76v-84q26 43 67.5 68.5t97.5 25.5
q57 0 90 -25.5t44 -72.5q25 45 67.5 71.5t99.5 26.5z" />
    <glyph glyph-name="n" unicode="n" horiz-adv-x="564" 
d="M337 496q78 0 113.5 -41t35.5 -113v-342h-81v331q0 45 -19.5 72t-69.5 27q-31 0 -58.5 -11t-48.5 -31.5t-33 -50t-12 -66.5v-271h-81v486h77v-85q26 44 71.5 69.5t105.5 25.5z" />
    <glyph glyph-name="o" unicode="o" horiz-adv-x="585" 
d="M295 -11q-50 0 -92.5 15t-73 46.5t-48 79.5t-17.5 113q0 64 17 111.5t48 79t73 47t93 15.5t92.5 -14.5t71 -45.5t46 -79t16.5 -114t-16.5 -113.5t-46.5 -79t-71.5 -46.5t-91.5 -15zM293 44q69 0 106 46.5t37 152.5q0 105 -37 151.5t-106 46.5t-106.5 -47t-37.5 -151
q0 -106 37.5 -152.5t106.5 -46.5z" />
    <glyph glyph-name="p" unicode="p" horiz-adv-x="581" 
d="M325 495q86 0 139 -62.5t53 -190.5q0 -64 -16.5 -111.5t-44.5 -79t-64.5 -46.5t-76.5 -15q-54 0 -91.5 21.5t-60.5 56.5v-258h-80v676h78v-83q26 42 66.5 67t97.5 25zM301 54q65 0 98 43.5t33 143.5q0 97 -31.5 143.5t-96.5 46.5q-59 0 -100 -47.5t-41 -142.5t39.5 -141
t98.5 -46z" />
    <glyph glyph-name="q" unicode="q" horiz-adv-x="581" 
d="M498 486v-678h-81v272q-25 -41 -65 -65.5t-96 -24.5q-85 0 -138.5 63t-53.5 190q0 65 16.5 112t44.5 78.5t64.5 46.5t76.5 15q55 0 92.5 -23t60.5 -61v75h79zM277 54q59 0 99.5 47.5t40.5 142.5q0 96 -38.5 141.5t-98.5 45.5q-65 0 -98 -43.5t-33 -143.5
q0 -97 31.5 -143.5t96.5 -46.5z" />
    <glyph glyph-name="r" unicode="r" horiz-adv-x="400" 
d="M366 405q-6 2 -13 3q-8 1 -17 2t-21 1q-31 0 -58.5 -13t-48 -38t-32.5 -61t-12 -81v-218h-81v486h78v-119q26 59 70.5 94t96.5 35q10 0 21 -1q5 -1 9 -2z" />
    <glyph glyph-name="s" unicode="s" horiz-adv-x="493" 
d="M244 -9q-42 0 -74 7t-53 16q-26 10 -44 23l-9 82q23 -20 51 -36q25 -15 57 -26t70 -11q55 0 80 20t25 54q0 32 -22.5 48.5t-62.5 28.5l-56 18q-31 9 -57 20.5t-44 27t-28 37.5t-10 53q0 62 44 101.5t135 39.5q40 0 70 -5.5t50 -12.5q24 -8 41 -18l10 -81q-21 17 -47 31
q-25 13 -55 22t-68 9q-52 0 -75 -21t-23 -55q0 -32 22.5 -48t60.5 -28l59 -19q30 -9 55.5 -20.5t44 -27t28.5 -37.5t10 -52q0 -62 -46.5 -101t-138.5 -39z" />
    <glyph glyph-name="t" unicode="t" horiz-adv-x="403" 
d="M276 54q19 0 35 4t27 9q14 6 25 13l-7 -57q-11 -9 -27 -16q-14 -7 -33 -12t-45 -5q-65 0 -101 32.5t-36 104.5v307h-84v53h84v144h81v-144h155l5 -53h-160v-296q0 -45 19.5 -64.5t61.5 -19.5z" />
    <glyph glyph-name="u" unicode="u" horiz-adv-x="562" 
d="M479 487v-487h-76v85q-27 -44 -72 -69.5t-105 -25.5q-77 0 -112.5 41t-35.5 113v343h81v-334q0 -45 19.5 -72t69.5 -27q30 0 57.5 11.5t48 32.5t32.5 50.5t12 66.5v272h81z" />
    <glyph glyph-name="v" unicode="v" horiz-adv-x="515" 
d="M481 487l-190 -487h-75l-182 487h89l143 -400l142 400h73z" />
    <glyph glyph-name="w" unicode="w" horiz-adv-x="764" 
d="M730 487l-156 -487h-77l-118 359l-124 -359h-74l-147 487h90l107 -393l133 393h54l129 -393l110 393h73z" />
    <glyph glyph-name="x" unicode="x" horiz-adv-x="524" 
d="M490 0h-100l-135 193l-137 -193h-84l181 238l-179 249h101l134 -193l132 193h84l-177 -237z" />
    <glyph glyph-name="y" unicode="y" horiz-adv-x="518" 
d="M484 487l-209 -539q-32 -81 -71.5 -114.5t-96.5 -33.5q-12 0 -22.5 1.5t-17.5 3.5q-10 3 -17 6l-9 70q8 -3 18 -6q9 -2 21 -3.5t27 -1.5q25 0 43 9t33 27t27.5 44t25.5 61l-202 476h92l152 -377l134 377h72z" />
    <glyph glyph-name="z" unicode="z" horiz-adv-x="508" 
d="M460 53l-6 -53h-400v51l286 383h-281l5 53h376v-51l-285 -383h305z" />
    <glyph glyph-name="braceleft" unicode="{" horiz-adv-x="333" 
d="M262 -123q-34 0 -65 8t-53.5 25t-36 43t-13.5 62q0 27 8.5 50.5t19 45.5t19 43.5t8.5 44.5q0 24 -8.5 38.5t-22 23t-29.5 11.5t-30 3v41q15 0 31 3t29 11t21.5 22.5t8.5 38.5q0 23 -8.5 44.5t-19 43t-19 45.5t-8.5 52q0 36 13 62t36 43.5t53.5 25.5t65.5 8h26l5 -51h-33
q-41 0 -63.5 -15t-22.5 -57q0 -27 5.5 -48.5t12 -42.5t12 -42t5.5 -47q0 -48 -24 -76.5t-54 -40.5q30 -11 54 -40t24 -76q0 -26 -5.5 -47.5t-12 -41.5t-12 -41.5t-5.5 -47.5q0 -42 22 -58t64 -16h33l-5 -50h-26z" />
    <glyph glyph-name="bar" unicode="|" horiz-adv-x="310" 
d="M125 900h59v-1200h-59v1200z" />
    <glyph glyph-name="braceright" unicode="}" horiz-adv-x="333" 
d="M40 -73h33q42 0 64 16t22 58q0 26 -5.5 47.5t-12 41.5t-12 41.5t-5.5 47.5q0 47 23.5 76t54.5 40q-31 12 -54.5 40.5t-23.5 76.5q0 26 5.5 47t12 42t12 42.5t5.5 48.5q0 42 -22.5 57t-63.5 15h-33l5 51h25q35 0 65.5 -8t53.5 -25.5t36 -43.5t13 -62q0 -28 -8.5 -52
t-19 -45.5t-19 -43t-8.5 -44.5q0 -24 8.5 -38.5t21.5 -22.5t29 -11t31 -3v-41q-14 0 -30 -3t-29.5 -11.5t-22 -23t-8.5 -38.5q0 -23 8.5 -44.5t19 -43.5t19 -45.5t8.5 -50.5q0 -36 -13.5 -62t-36 -43t-53 -25t-65.5 -8h-25z" />
    <glyph glyph-name="asciitilde" unicode="~" 
d="M395 199q-36 0 -61.5 12t-47.5 26t-43.5 26t-49.5 12q-25 0 -44.5 -11t-32.5 -24q-16 -15 -27 -35v62q14 21 33 37q17 15 39.5 26t52.5 11q36 0 62 -11.5t48 -26t44 -26t49 -11.5q25 0 44.5 10.5t32.5 24.5q16 15 28 34v-62q-14 -21 -33 -37q-18 -15 -41 -26t-53 -11z
" />
    <glyph glyph-name="exclamdown" unicode="&#xa1;" horiz-adv-x="258" 
d="M86 487h81v-113h-81v113zM95 258h65l12 -450h-88z" />
    <glyph glyph-name="cent" unicode="&#xa2;" horiz-adv-x="537" 
d="M163 246q0 -99 41.5 -143t111.5 -44q34 0 61 5.5t47 11.5q22 7 39 17l-10 -58q-12 -10 -29 -18q-16 -8 -38.5 -14.5t-54.5 -9.5v-132h-56v131q-43 3 -80 18.5t-64 46t-42 76.5t-15 108q0 58 15.5 102.5t42.5 75.5t64 49.5t79 23.5v131h56v-130q32 -2 54.5 -8t38.5 -13
q17 -8 29 -18l10 -86q-17 18 -40 33q-21 13 -48.5 23t-62.5 10q-72 0 -110.5 -44t-38.5 -144z" />
    <glyph glyph-name="sterling" unicode="&#xa3;" horiz-adv-x="611" 
d="M553 122v-11q0 -21 -8 -42.5t-24.5 -39t-42 -28.5t-61.5 -11q-38 0 -70 7.5t-63.5 17t-65 17t-74.5 7.5q-21 0 -37 -2t-28 -5q-13 -3 -23 -7v51q10 5 24 9q12 3 28 5.5t37 2.5q36 0 60.5 24.5t24.5 62.5q0 21 -4.5 40.5t-11.5 37.5h-156v55h128q-14 24 -29.5 48.5
t-28 50.5t-21 55t-8.5 62q0 38 13.5 73.5t41 62.5t69 43.5t96.5 16.5q51 0 88 -8t62 -17q29 -12 49 -26l10 -101q-24 25 -55 45q-29 18 -67 31t-87 13q-72 0 -106 -35.5t-34 -94.5q0 -30 9 -58t22.5 -55t28.5 -53t28 -53h197v-55h-177q6 -22 6 -47q0 -47 -18 -76.5
t-44 -46.5q27 -4 50 -9t45 -9.5t45 -7.5t50 -3q34 0 53.5 11.5t29.5 26.5t12.5 30.5t2.5 23.5z" />
    <glyph glyph-name="yen" unicode="&#xa5;" 
d="M408 426h132v-55h-164l-29 -49v-49h193v-55h-193v-218h-83v218h-192v55h192l-1 49l-28 49h-163v55h131l-168 289h102l181 -333l177 333h82z" />
    <glyph glyph-name="brokenbar" unicode="&#xa6;" horiz-adv-x="309" 
d="M125 900h59v-482h-59v482zM125 180h59v-480h-59v480z" />
    <glyph glyph-name="section" unicode="&#xa7;" 
d="M548 199q0 -57 -27.5 -93t-65.5 -56q32 -41 32 -94q0 -68 -50.5 -113t-145.5 -45q-44 0 -76 7t-53 15q-25 10 -42 23l-9 79q20 -19 47 -34q24 -14 56.5 -24t74.5 -10q60 0 89.5 25.5t29.5 69.5q0 25 -9 44.5t-25 36t-37.5 31t-47.5 28.5l-75 42q-71 38 -110.5 83
t-39.5 108q0 57 27 93t65 56q-32 41 -32 94q0 68 51 113t145 45q44 0 76 -7t53 -15q25 -10 42 -23l10 -79q-20 19 -47 34q-25 14 -57.5 24t-74.5 10q-60 0 -89 -25.5t-29 -69.5q0 -49 33.5 -80t85.5 -60l75 -42q71 -38 110.5 -83t39.5 -108zM427 79q26 14 39 40.5t13 58.5
q0 48 -31.5 86t-95.5 74l-72 40q-29 16 -53 31.5t-43 32.5q-25 -14 -38.5 -40.5t-13.5 -58.5q0 -48 31.5 -86t95.5 -74l73 -40q29 -16 53 -31.5t42 -32.5z" />
    <glyph glyph-name="dieresis" unicode="&#xa8;" horiz-adv-x="520" 
d="M142 705h79v-111h-79v111zM297 705h78v-111h-78v111z" />
    <glyph glyph-name="copyright" unicode="&#xa9;" horiz-adv-x="948" 
d="M475 -36q-83 0 -155.5 28.5t-126 79t-84 120.5t-30.5 152t30 151.5t83 120.5t125 80t156 29q83 0 155.5 -28.5t126 -79t84.5 -120t31 -151.5t-30.5 -152t-83.5 -121t-125 -80t-156 -29zM477 13q71 0 132 25.5t106 70t71 105t26 131.5q0 75 -27 136t-73.5 104t-108.5 66.5
t-132 23.5q-71 0 -132 -25t-106 -69.5t-70.5 -105t-25.5 -131.5q0 -76 27 -137t73 -104t108 -66.5t132 -23.5zM477 127q-40 0 -74.5 12.5t-60 39t-40 68t-14.5 98.5q0 55 16 96.5t43.5 69t64 41.5t77.5 14q32 0 55.5 -5.5t38.5 -11.5q17 -8 29 -18l10 -74q-15 16 -35 28
q-18 11 -41 19.5t-54 8.5q-61 0 -94.5 -38t-33.5 -126q0 -87 35.5 -125t96.5 -38q30 0 53 4.5t40 10.5q19 7 33 15l-9 -51q-13 -11 -33 -19q-18 -8 -43 -13.5t-60 -5.5z" />
    <glyph glyph-name="ordfeminine" unicode="&#xaa;" horiz-adv-x="516" 
d="M209 359q-46 0 -74 24t-28 66q0 35 18.5 57.5t49.5 36t72.5 20.5t87.5 11v31q0 67 -74 67q-30 0 -54.5 -6.5t-42.5 -14.5q-21 -10 -38 -22l4 54q16 12 36 21q19 9 43.5 15t55.5 6q132 0 132 -119v-240h-60v47q-5 -6 -15 -15.5t-25.5 -18t-37 -14.5t-50.5 -6zM225 408
q51 0 80.5 28t29.5 75v23q-35 -4 -64.5 -8.5t-50.5 -13t-33 -22.5t-12 -35q0 -47 50 -47z" />
    <glyph glyph-name="guillemotleft" unicode="&#xab;" horiz-adv-x="499" 
d="M59 271l185 223l25 -39l-120 -184l120 -184l-25 -39zM218 271l198 203l24 -37l-134 -166l134 -166l-24 -37z" />
    <glyph glyph-name="logicalnot" unicode="&#xac;" 
d="M463 319h-374v58h433v-228h-59v170z" />
    <glyph glyph-name="registered" unicode="&#xae;" horiz-adv-x="960" 
d="M487 -36q-84 0 -156.5 28.5t-126 79t-84 120.5t-30.5 152t30 151.5t83.5 120.5t125.5 80t156 29q83 0 155.5 -28.5t126 -79t84 -120t30.5 -151.5t-30 -152t-83 -121t-125 -80t-156 -29zM489 13q71 0 132 25t106 69.5t70.5 105.5t25.5 132q0 75 -27 136t-73.5 104
t-108 66.5t-131.5 23.5q-71 0 -132.5 -25t-106.5 -69.5t-70.5 -105t-25.5 -131.5q0 -76 27 -137t73.5 -104t108.5 -66.5t132 -23.5zM341 561h187q66 0 101.5 -33t35.5 -84q0 -49 -30 -79.5t-79 -39.5l119 -185h-74l-111 179h-87v-179h-62v421zM518 361q42 0 62.5 23t20.5 59
q0 35 -21 56t-63 21h-114v-159h115z" />
    <glyph glyph-name="macron" unicode="&#xaf;" horiz-adv-x="520" 
d="M110 659h299l4 -58h-308z" />
    <glyph glyph-name="degree" unicode="&#xb0;" horiz-adv-x="496" 
d="M249 406q-35 0 -64.5 11.5t-51 32.5t-33.5 50t-12 64q0 36 12 66t33.5 51t51 32.5t64.5 11.5t64 -11.5t50 -32.5t33 -50.5t12 -66.5q0 -35 -12 -64t-33 -50t-50 -32.5t-64 -11.5zM249 457q45 0 75 29.5t30 77.5q0 51 -30 81t-75 30q-46 0 -75.5 -30t-29.5 -81
q0 -48 29.5 -77.5t75.5 -29.5z" />
    <glyph glyph-name="plusminus" unicode="&#xb1;" 
d="M276 273h-187v59h187v163h59v-163h187v-59h-187v-158h-59v158zM89 58h433v-58h-433v58z" />
    <glyph glyph-name="uni00B2" unicode="&#xb2;" horiz-adv-x="320" 
d="M41 377q0 41 23 72t74 69l26 19q31 23 44 42t13 46q0 28 -16.5 42.5t-45.5 14.5q-25 0 -46.5 -6.5t-37.5 -14.5q-18 -10 -33 -22l6 48q13 11 30 19q16 8 36.5 13.5t47.5 5.5q53 0 82.5 -25.5t29.5 -71.5q0 -38 -18 -66t-54 -54l-27 -19q-36 -26 -52.5 -44.5t-23.5 -33.5
h182l-2 -39h-238v5z" />
    <glyph glyph-name="uni00B3" unicode="&#xb3;" horiz-adv-x="321" 
d="M157 362q-28 0 -49 6t-36 13q-16 8 -28 19l-5 48q14 -12 33 -21q16 -9 37 -15.5t47 -6.5q35 0 54 17.5t19 46.5q0 61 -64 61h-61v35h56q28 0 44.5 16.5t16.5 45.5q0 55 -62 55q-25 0 -46.5 -6.5t-37.5 -14.5q-18 -10 -33 -22l6 48q13 11 30 19q16 8 36.5 13.5t47.5 5.5
q53 0 83 -25t30 -68q0 -32 -16.5 -51.5t-31.5 -28.5q9 -3 19 -9.5t18.5 -16.5t14.5 -24t6 -34q0 -47 -35 -76.5t-93 -29.5z" />
    <glyph glyph-name="acute" unicode="&#xb4;" horiz-adv-x="520" 
d="M296 705h103l-141 -143h-66z" />
    <glyph glyph-name="paragraph" unicode="&#xb6;" horiz-adv-x="615" 
d="M352 305h-65q-51 0 -92.5 14t-71.5 40.5t-46.5 64t-16.5 84.5t16.5 85.5t45.5 65.5t70.5 41.5t90.5 14.5h261v-805h-62v756h-66v-756h-64v395zM352 355v310h-63q-72 0 -111 -41t-39 -114q0 -72 39.5 -113.5t110.5 -41.5h63z" />
    <glyph glyph-name="periodcentered" unicode="&#xb7;" horiz-adv-x="395" 
d="M157 326h81v-114h-81v114z" />
    <glyph glyph-name="cedilla" unicode="&#xb8;" horiz-adv-x="520" 
d="M244 -205q-24 0 -41.5 3t-28.5 7q-14 4 -23 10l-5 52q12 -10 27 -17q13 -7 30 -12t39 -5q26 0 39 10.5t13 27.5q0 21 -19.5 29t-40.5 14l-40 11l49 82h43l-36 -59l22 -5q14 -3 28.5 -6.5t26.5 -11t20 -20t8 -32.5q0 -35 -29 -56.5t-82 -21.5z" />
    <glyph glyph-name="uni00B9" unicode="&#xb9;" horiz-adv-x="321" 
d="M39 412h98v248l-77 -45l4 46l90 54h37v-303h88l-3 -39h-234z" />
    <glyph glyph-name="ordmasculine" unicode="&#xba;" horiz-adv-x="518" 
d="M261 358q-79 0 -123.5 48t-44.5 136t44.5 135.5t122.5 47.5q81 0 123 -46t42 -137q0 -89 -43 -136.5t-121 -47.5zM261 403q101 0 101 139q0 138 -101 138t-101 -138q0 -139 101 -139z" />
    <glyph glyph-name="guillemotright" unicode="&#xbb;" horiz-adv-x="499" 
d="M230 87l120 184l-120 184l25 39l185 -223l-185 -223zM59 105l134 166l-134 166l24 37l198 -203l-198 -203z" />
    <glyph glyph-name="onequarter" unicode="&#xbc;" horiz-adv-x="622" 
d="M41 412h88v248l-77 -45l4 46l91 54h37v-303h77l-3 -39h-214zM454 715h61l-315 -715h-63zM478 86h-158v31l152 225h60v-217h51v-39h-51v-86h-54v86zM478 125v151l-102 -151h102z" />
    <glyph glyph-name="onehalf" unicode="&#xbd;" horiz-adv-x="623" 
d="M41 412h88v248l-77 -45l4 46l91 54h37v-303h77l-3 -39h-214zM442 715h61l-315 -715h-63zM348 5q0 41 23 72t74 69l26 19q31 23 43.5 42t12.5 46q0 57 -62 57q-25 0 -46.5 -6.5t-36.5 -14.5q-18 -10 -33 -22l5 48q13 11 31 19q15 8 36 13.5t48 5.5q53 0 82.5 -25.5
t29.5 -71.5q0 -38 -18 -66t-54 -54l-28 -19q-35 -26 -51.5 -44.5t-23.5 -33.5h182l-2 -39h-238v5z" />
    <glyph glyph-name="threequarters" unicode="&#xbe;" horiz-adv-x="622" 
d="M157 362q-28 0 -49 6t-36 13q-16 8 -28 19l-5 48q14 -12 33 -21q16 -9 37 -15.5t47 -6.5q35 0 54 17.5t19 46.5q0 61 -64 61h-61v35h56q28 0 44.5 16.5t16.5 45.5q0 55 -62 55q-25 0 -46.5 -6.5t-37.5 -14.5q-18 -10 -33 -22l6 48q13 11 30 19q16 8 36.5 13.5t47.5 5.5
q53 0 83 -25t30 -68q0 -32 -16.5 -51.5t-31.5 -28.5q9 -3 19 -9.5t18.5 -16.5t14.5 -24t6 -34q0 -47 -35 -76.5t-93 -29.5zM462 715h60l-315 -715h-62zM478 86h-158v31l152 225h60v-217h51v-39h-51v-86h-54v86zM478 125v151l-102 -151h102z" />
    <glyph glyph-name="questiondown" unicode="&#xbf;" horiz-adv-x="446" 
d="M199 486h81v-113h-81v113zM217 -206q-87 0 -132.5 42.5t-45.5 112.5q0 38 12.5 66t31.5 49t40.5 38.5t40.5 35.5t31.5 38.5t12.5 48.5v32h61l4 -16q1 -7 2 -15.5t1 -16.5q0 -30 -11.5 -52.5t-29.5 -40.5t-38 -34.5t-38 -35t-29.5 -42t-11.5 -54.5q0 -42 25 -65.5
t82 -23.5q40 0 73.5 9t57.5 21q28 13 51 30l-9 -71q-21 -16 -49 -28q-25 -11 -57.5 -19.5t-74.5 -8.5z" />
    <glyph glyph-name="Agrave" unicode="&#xc0;" horiz-adv-x="706" 
d="M352 757l-144 143h105l106 -143h-67zM485 234h-286l-83 -234h-77l271 715h84l273 -715h-95zM466 287l-127 340l-121 -340h248z" />
    <glyph glyph-name="Aacute" unicode="&#xc1;" horiz-adv-x="706" 
d="M371 757h-66l104 143h103zM485 234h-286l-83 -234h-77l271 715h84l273 -715h-95zM466 287l-127 340l-121 -340h248z" />
    <glyph glyph-name="Acircumflex" unicode="&#xc2;" horiz-adv-x="706" 
d="M217 751l-32 22l140 124h56l140 -124l-32 -22l-136 79zM485 234h-286l-83 -234h-77l271 715h84l273 -715h-95zM466 287l-127 340l-121 -340h248z" />
    <glyph glyph-name="Atilde" unicode="&#xc3;" horiz-adv-x="706" 
d="M266 826q-19 0 -35 -9t-27.5 -19.5t-18 -20t-6.5 -10.5l7 56q10 18 25 33q13 13 30 22.5t40 9.5q28 0 48.5 -10.5t37.5 -23t34 -23t38 -10.5q20 0 36 9t27 19.5t17.5 19.5t7.5 10l-7 -56q-10 -18 -25 -32q-13 -13 -30.5 -22.5t-40.5 -9.5q-28 0 -47.5 10.5t-37 23
t-34.5 23t-39 10.5zM485 234h-286l-83 -234h-77l271 715h84l273 -715h-95zM466 287l-127 340l-121 -340h248z" />
    <glyph glyph-name="Adieresis" unicode="&#xc4;" horiz-adv-x="706" 
d="M314 789h-79v111h79v-111zM468 789h-78v111h78v-111zM485 234h-286l-83 -234h-77l271 715h84l273 -715h-95zM466 287l-127 340l-121 -340h248z" />
    <glyph glyph-name="Aring" unicode="&#xc5;" horiz-adv-x="706" 
d="M354 737q-43 0 -70.5 25.5t-27.5 67.5t27.5 68t70.5 26q42 0 68.5 -26t26.5 -68t-26.5 -67.5t-68.5 -25.5zM354 879q-22 0 -35.5 -13t-13.5 -36q0 -22 13.5 -35t35.5 -13q20 0 33.5 13t13.5 35q0 23 -13.5 36t-33.5 13zM485 234h-286l-83 -234h-77l271 715h84l273 -715
h-95zM466 287l-127 340l-121 -340h248z" />
    <glyph glyph-name="AE" unicode="&#xc6;" horiz-adv-x="1007" 
d="M949 61l-5 -61h-430v273h-265l-133 -273h-82l362 715h545l3 -61h-344v-262h301v-54h-301v-277h349zM514 327v328h-78l-161 -328h239z" />
    <glyph glyph-name="Ccedilla" unicode="&#xc7;" horiz-adv-x="678" 
d="M160 362q0 -82 18 -139.5t50.5 -93.5t76 -52.5t94.5 -16.5q49 0 89 9t68 21q33 12 59 29l-9 -63q-21 -17 -50 -30q-27 -13 -64 -23t-89 -12l-26 -43l22 -5q14 -3 28.5 -6.5t26.5 -11t20 -20t8 -32.5q0 -35 -29 -56.5t-82 -21.5q-24 0 -41.5 3t-28.5 7q-14 4 -23 10l-5 52
q12 -10 27 -17q13 -7 30 -12t39 -5q26 0 39 10.5t13 27.5q0 21 -19.5 29t-40.5 14l-40 11l40 67q-62 3 -115.5 26.5t-92.5 68.5t-61.5 112t-22.5 158q0 95 25 164t67.5 114.5t100 67.5t121.5 22q57 0 98 -9.5t69 -20.5q31 -14 53 -31l12 -104q-25 28 -60 50q-31 20 -72.5 35
t-96.5 15q-50 0 -91.5 -17t-71.5 -53t-46.5 -92.5t-16.5 -135.5z" />
    <glyph glyph-name="Egrave" unicode="&#xc8;" horiz-adv-x="586" 
d="M305 757l-144 143h105l106 -143h-67zM527 62l-6 -62h-433v715h430l5 -62h-348v-261h303v-54h-303v-276h352z" />
    <glyph glyph-name="Eacute" unicode="&#xc9;" horiz-adv-x="586" 
d="M324 757h-66l104 143h103zM527 62l-6 -62h-433v715h430l5 -62h-348v-261h303v-54h-303v-276h352z" />
    <glyph glyph-name="Ecircumflex" unicode="&#xca;" horiz-adv-x="586" 
d="M170 751l-32 22l140 124h56l140 -124l-32 -22l-136 79zM527 62l-6 -62h-433v715h430l5 -62h-348v-261h303v-54h-303v-276h352z" />
    <glyph glyph-name="Edieresis" unicode="&#xcb;" horiz-adv-x="586" 
d="M267 789h-79v111h79v-111zM421 789h-78v111h78v-111zM527 62l-6 -62h-433v715h430l5 -62h-348v-261h303v-54h-303v-276h352z" />
    <glyph glyph-name="Igrave" unicode="&#xcc;" horiz-adv-x="263" 
d="M-12 900h105l106 -143h-67zM88 715h87v-715h-87v715z" />
    <glyph glyph-name="Iacute" unicode="&#xcd;" horiz-adv-x="263" 
d="M189 900h103l-141 -143h-66zM88 715h87v-715h-87v715z" />
    <glyph glyph-name="Icircumflex" unicode="&#xce;" horiz-adv-x="263" 
d="M-35 773l140 124h56l140 -124l-32 -22l-136 79l-136 -79zM88 715h87v-715h-87v715z" />
    <glyph glyph-name="Idieresis" unicode="&#xcf;" horiz-adv-x="263" 
d="M15 900h79v-111h-79v111zM170 900h78v-111h-78v111zM88 715h87v-715h-87v715z" />
    <glyph glyph-name="Eth" unicode="&#xd0;" horiz-adv-x="742" 
d="M334 715q72 0 134 -20t107.5 -62.5t71.5 -109.5t26 -162q0 -94 -27 -162.5t-73.5 -112.5t-110 -65t-135.5 -21h-218v338h-74v54h74v323h225zM325 58q58 0 105.5 17t81 54t52 94t18.5 136t-18 135.5t-51.5 92.5t-80.5 53t-104 17h-133v-265h194v-54h-194v-280h130z" />
    <glyph glyph-name="Ntilde" unicode="&#xd1;" horiz-adv-x="716" 
d="M275 826q-19 0 -35 -9t-27.5 -19.5t-18 -20t-6.5 -10.5l7 56q10 18 25 33q13 13 30 22.5t40 9.5q28 0 48.5 -10.5t37.5 -23t34 -23t38 -10.5q20 0 36 9t27 19.5t17.5 19.5t7.5 10l-7 -56q-10 -18 -25 -32q-13 -13 -30.5 -22.5t-40.5 -9.5q-28 0 -47.5 10.5t-37 23
t-34.5 23t-39 10.5zM628 715v-715h-99l-369 617v-617h-72v715h113l355 -598v598h72z" />
    <glyph glyph-name="Ograve" unicode="&#xd2;" horiz-adv-x="797" 
d="M255 900h105l106 -143h-67zM397 -10q-73 0 -133.5 22.5t-104 68t-67 115t-23.5 163.5q0 93 25 161.5t69 114t104.5 68t132.5 22.5q74 0 134.5 -21.5t103.5 -66t66.5 -113.5t23.5 -164q0 -96 -25 -165.5t-69.5 -115t-105 -67.5t-131.5 -22zM398 48q111 0 174.5 74.5
t63.5 237.5q0 161 -63.5 234t-174.5 73q-54 0 -98 -18t-75 -56t-48 -96t-17 -138q0 -81 17 -140t48 -97t75 -56t98 -18z" />
    <glyph glyph-name="Oacute" unicode="&#xd3;" horiz-adv-x="797" 
d="M456 900h103l-141 -143h-66zM397 -10q-73 0 -133.5 22.5t-104 68t-67 115t-23.5 163.5q0 93 25 161.5t69 114t104.5 68t132.5 22.5q74 0 134.5 -21.5t103.5 -66t66.5 -113.5t23.5 -164q0 -96 -25 -165.5t-69.5 -115t-105 -67.5t-131.5 -22zM398 48q111 0 174.5 74.5
t63.5 237.5q0 161 -63.5 234t-174.5 73q-54 0 -98 -18t-75 -56t-48 -96t-17 -138q0 -81 17 -140t48 -97t75 -56t98 -18z" />
    <glyph glyph-name="Ocircumflex" unicode="&#xd4;" horiz-adv-x="797" 
d="M232 773l140 124h56l140 -124l-32 -22l-136 79l-136 -79zM397 -10q-73 0 -133.5 22.5t-104 68t-67 115t-23.5 163.5q0 93 25 161.5t69 114t104.5 68t132.5 22.5q74 0 134.5 -21.5t103.5 -66t66.5 -113.5t23.5 -164q0 -96 -25 -165.5t-69.5 -115t-105 -67.5t-131.5 -22z
M398 48q111 0 174.5 74.5t63.5 237.5q0 161 -63.5 234t-174.5 73q-54 0 -98 -18t-75 -56t-48 -96t-17 -138q0 -81 17 -140t48 -97t75 -56t98 -18z" />
    <glyph glyph-name="Otilde" unicode="&#xd5;" horiz-adv-x="797" 
d="M471 759q-28 0 -47.5 10.5t-37 23t-34.5 23t-39 10.5q-19 0 -35 -9t-27.5 -19.5t-18 -20t-6.5 -10.5l7 56q10 18 25 33q13 13 30 22.5t40 9.5q28 0 48.5 -10.5t37.5 -23t34 -23t38 -10.5q20 0 36 9t27 19.5t17.5 19.5t7.5 10l-7 -56q-10 -18 -25 -32q-13 -13 -30.5 -22.5
t-40.5 -9.5zM397 -10q-73 0 -133.5 22.5t-104 68t-67 115t-23.5 163.5q0 93 25 161.5t69 114t104.5 68t132.5 22.5q74 0 134.5 -21.5t103.5 -66t66.5 -113.5t23.5 -164q0 -96 -25 -165.5t-69.5 -115t-105 -67.5t-131.5 -22zM398 48q111 0 174.5 74.5t63.5 237.5
q0 161 -63.5 234t-174.5 73q-54 0 -98 -18t-75 -56t-48 -96t-17 -138q0 -81 17 -140t48 -97t75 -56t98 -18z" />
    <glyph glyph-name="Odieresis" unicode="&#xd6;" horiz-adv-x="797" 
d="M282 900h79v-111h-79v111zM437 900h78v-111h-78v111zM397 -10q-73 0 -133.5 22.5t-104 68t-67 115t-23.5 163.5q0 93 25 161.5t69 114t104.5 68t132.5 22.5q74 0 134.5 -21.5t103.5 -66t66.5 -113.5t23.5 -164q0 -96 -25 -165.5t-69.5 -115t-105 -67.5t-131.5 -22z
M398 48q111 0 174.5 74.5t63.5 237.5q0 161 -63.5 234t-174.5 73q-54 0 -98 -18t-75 -56t-48 -96t-17 -138q0 -81 17 -140t48 -97t75 -56t98 -18z" />
    <glyph glyph-name="multiply" unicode="&#xd7;" 
d="M116 121l149 147l-149 148l42 42l148 -148l148 148l42 -41l-149 -148l149 -148l-42 -42l-148 148l-149 -148z" />
    <glyph glyph-name="Oslash" unicode="&#xd8;" horiz-adv-x="797" 
d="M587 678q67 -41 104 -119t37 -199q0 -96 -25 -165.5t-69.5 -115t-105 -67.5t-131.5 -22q-66 0 -122 18l-35 -75h-67l46 100q-71 42 -110.5 122t-39.5 204q0 93 25 161.5t69 114t104.5 68t132.5 22.5q73 0 133 -21l37 78h66zM160 359q0 -97 23.5 -161.5t65.5 -100.5
l257 549q-46 21 -108 21q-54 0 -98 -18t-75 -56t-48 -96t-17 -138zM398 48q111 0 174.5 74.5t63.5 237.5q0 91 -20.5 153t-59.5 99l-254 -546q42 -18 96 -18z" />
    <glyph glyph-name="Ugrave" unicode="&#xd9;" horiz-adv-x="699" 
d="M213 900h105l106 -143h-67zM347 -10q-59 0 -107.5 15t-83.5 45.5t-54 77t-19 109.5v478h87v-472q0 -97 52 -142.5t139 -45.5q86 0 135 45.5t49 143.5v471h71v-470q0 -63 -19 -111t-54.5 -80t-85 -48t-110.5 -16z" />
    <glyph glyph-name="Uacute" unicode="&#xda;" horiz-adv-x="699" 
d="M414 900h103l-141 -143h-66zM347 -10q-59 0 -107.5 15t-83.5 45.5t-54 77t-19 109.5v478h87v-472q0 -97 52 -142.5t139 -45.5q86 0 135 45.5t49 143.5v471h71v-470q0 -63 -19 -111t-54.5 -80t-85 -48t-110.5 -16z" />
    <glyph glyph-name="Ucircumflex" unicode="&#xdb;" horiz-adv-x="699" 
d="M190 773l140 124h56l140 -124l-32 -22l-136 79l-136 -79zM347 -10q-59 0 -107.5 15t-83.5 45.5t-54 77t-19 109.5v478h87v-472q0 -97 52 -142.5t139 -45.5q86 0 135 45.5t49 143.5v471h71v-470q0 -63 -19 -111t-54.5 -80t-85 -48t-110.5 -16z" />
    <glyph glyph-name="Udieresis" unicode="&#xdc;" horiz-adv-x="699" 
d="M240 900h79v-111h-79v111zM395 900h78v-111h-78v111zM347 -10q-59 0 -107.5 15t-83.5 45.5t-54 77t-19 109.5v478h87v-472q0 -97 52 -142.5t139 -45.5q86 0 135 45.5t49 143.5v471h71v-470q0 -63 -19 -111t-54.5 -80t-85 -48t-110.5 -16z" />
    <glyph glyph-name="Yacute" unicode="&#xdd;" horiz-adv-x="674" 
d="M361 757h-66l104 143h103zM635 715l-256 -385v-330h-86v327l-254 388h107l204 -324l201 324h84z" />
    <glyph glyph-name="Thorn" unicode="&#xde;" horiz-adv-x="635" 
d="M88 715h87v-152h195q43 0 79 -11.5t62 -35t40.5 -58t14.5 -80.5q0 -45 -15 -80.5t-41.5 -60t-63 -37t-78.5 -12.5h-193v-188h-87v715zM354 245q63 0 96 32.5t33 99.5q0 130 -129 130h-179v-262h179z" />
    <glyph glyph-name="germandbls" unicode="&#xdf;" horiz-adv-x="555" 
d="M339 -8q-31 0 -53.5 6t-37.5 13q-18 8 -31 19l-5 65q14 -14 32 -25q17 -10 39 -17.5t50 -7.5q38 0 58 21t20 59q0 28 -12.5 47t-30.5 34t-40 27t-40 26.5t-30.5 33t-12.5 45.5q0 39 22 64t48 49t48 52.5t22 73.5q0 43 -24.5 66t-71.5 23q-57 0 -91 -38.5t-34 -115.5v-512
h-81v499q0 48 14.5 89t41.5 71.5t66 48t88 17.5q80 0 126.5 -37t46.5 -103q0 -49 -24 -81t-53.5 -56.5t-53.5 -45.5t-24 -48q0 -18 13.5 -31t34.5 -24.5t44.5 -24.5t44.5 -31t34.5 -44t13.5 -63q0 -31 -11.5 -57t-32.5 -45.5t-50 -30.5t-63 -11z" />
    <glyph glyph-name="agrave" unicode="&#xe0;" horiz-adv-x="537" 
d="M281 562l-144 143h105l106 -143h-67zM280 496q54 0 88.5 -14t54.5 -37t27.5 -52.5t7.5 -59.5v-333h-78v76q-25 -38 -68.5 -62t-106.5 -24q-75 0 -110.5 34t-35.5 89q0 48 25 78.5t67.5 49t99.5 28t121 14.5h6v49q0 48 -25.5 72.5t-84.5 24.5q-40 0 -74.5 -9.5
t-59.5 -20.5q-30 -14 -54 -31l9 71q22 16 51 29q26 11 60.5 19.5t79.5 8.5zM227 48q35 0 63 12t47.5 32t30 47t10.5 57v40l-4 -1q-48 -4 -91 -11t-74.5 -19.5t-50 -33t-18.5 -52.5q0 -33 21.5 -52t65.5 -19z" />
    <glyph glyph-name="aacute" unicode="&#xe1;" horiz-adv-x="537" 
d="M300 562h-66l104 143h103zM280 496q54 0 88.5 -14t54.5 -37t27.5 -52.5t7.5 -59.5v-333h-78v76q-25 -38 -68.5 -62t-106.5 -24q-75 0 -110.5 34t-35.5 89q0 48 25 78.5t67.5 49t99.5 28t121 14.5h6v49q0 48 -25.5 72.5t-84.5 24.5q-40 0 -74.5 -9.5t-59.5 -20.5
q-30 -14 -54 -31l9 71q22 16 51 29q26 11 60.5 19.5t79.5 8.5zM227 48q35 0 63 12t47.5 32t30 47t10.5 57v40l-4 -1q-48 -4 -91 -11t-74.5 -19.5t-50 -33t-18.5 -52.5q0 -33 21.5 -52t65.5 -19z" />
    <glyph glyph-name="acircumflex" unicode="&#xe2;" horiz-adv-x="537" 
d="M146 556l-32 22l140 124h56l140 -124l-32 -22l-136 79zM280 496q54 0 88.5 -14t54.5 -37t27.5 -52.5t7.5 -59.5v-333h-78v76q-25 -38 -68.5 -62t-106.5 -24q-75 0 -110.5 34t-35.5 89q0 48 25 78.5t67.5 49t99.5 28t121 14.5h6v49q0 48 -25.5 72.5t-84.5 24.5
q-40 0 -74.5 -9.5t-59.5 -20.5q-30 -14 -54 -31l9 71q22 16 51 29q26 11 60.5 19.5t79.5 8.5zM227 48q35 0 63 12t47.5 32t30 47t10.5 57v40l-4 -1q-48 -4 -91 -11t-74.5 -19.5t-50 -33t-18.5 -52.5q0 -33 21.5 -52t65.5 -19z" />
    <glyph glyph-name="atilde" unicode="&#xe3;" horiz-adv-x="537" 
d="M195 631q-19 0 -35 -9t-27.5 -19.5t-18 -20t-6.5 -10.5l7 56q10 18 25 33q13 13 30 22.5t40 9.5q28 0 48.5 -10.5t37.5 -23t34 -23t38 -10.5q20 0 36 9t27 19.5t17.5 19.5t7.5 10l-7 -56q-10 -18 -25 -32q-13 -13 -30.5 -22.5t-40.5 -9.5q-28 0 -47.5 10.5t-37 23
t-34.5 23t-39 10.5zM280 496q54 0 88.5 -14t54.5 -37t27.5 -52.5t7.5 -59.5v-333h-78v76q-25 -38 -68.5 -62t-106.5 -24q-75 0 -110.5 34t-35.5 89q0 48 25 78.5t67.5 49t99.5 28t121 14.5h6v49q0 48 -25.5 72.5t-84.5 24.5q-40 0 -74.5 -9.5t-59.5 -20.5q-30 -14 -54 -31
l9 71q22 16 51 29q26 11 60.5 19.5t79.5 8.5zM227 48q35 0 63 12t47.5 32t30 47t10.5 57v40l-4 -1q-48 -4 -91 -11t-74.5 -19.5t-50 -33t-18.5 -52.5q0 -33 21.5 -52t65.5 -19z" />
    <glyph glyph-name="adieresis" unicode="&#xe4;" horiz-adv-x="537" 
d="M243 594h-79v111h79v-111zM397 594h-78v111h78v-111zM280 496q54 0 88.5 -14t54.5 -37t27.5 -52.5t7.5 -59.5v-333h-78v76q-25 -38 -68.5 -62t-106.5 -24q-75 0 -110.5 34t-35.5 89q0 48 25 78.5t67.5 49t99.5 28t121 14.5h6v49q0 48 -25.5 72.5t-84.5 24.5
q-40 0 -74.5 -9.5t-59.5 -20.5q-30 -14 -54 -31l9 71q22 16 51 29q26 11 60.5 19.5t79.5 8.5zM227 48q35 0 63 12t47.5 32t30 47t10.5 57v40l-4 -1q-48 -4 -91 -11t-74.5 -19.5t-50 -33t-18.5 -52.5q0 -33 21.5 -52t65.5 -19z" />
    <glyph glyph-name="aring" unicode="&#xe5;" horiz-adv-x="537" 
d="M283 542q-43 0 -70.5 25.5t-27.5 67.5t27.5 68t70.5 26q42 0 68.5 -26t26.5 -68t-26.5 -67.5t-68.5 -25.5zM283 684q-22 0 -35.5 -13t-13.5 -36q0 -22 13.5 -35t35.5 -13q20 0 33.5 13t13.5 35q0 23 -13.5 36t-33.5 13zM280 496q54 0 88.5 -14t54.5 -37t27.5 -52.5
t7.5 -59.5v-333h-78v76q-25 -38 -68.5 -62t-106.5 -24q-75 0 -110.5 34t-35.5 89q0 48 25 78.5t67.5 49t99.5 28t121 14.5h6v49q0 48 -25.5 72.5t-84.5 24.5q-40 0 -74.5 -9.5t-59.5 -20.5q-30 -14 -54 -31l9 71q22 16 51 29q26 11 60.5 19.5t79.5 8.5zM227 48q35 0 63 12
t47.5 32t30 47t10.5 57v40l-4 -1q-48 -4 -91 -11t-74.5 -19.5t-50 -33t-18.5 -52.5q0 -33 21.5 -52t65.5 -19z" />
    <glyph glyph-name="ae" unicode="&#xe6;" horiz-adv-x="844" 
d="M463 241q2 -94 46.5 -138t128.5 -44q34 0 61 5.5t46 11.5q23 7 40 17l-10 -58q-16 -12 -39 -22q-21 -9 -50 -15.5t-70 -6.5q-74 0 -128.5 28.5t-83.5 88.5q-24 -54 -76 -86t-124 -32q-75 0 -110 34.5t-35 88.5q0 48 25.5 78.5t69 49t101.5 28t124 14.5v49q0 47 -26 72.5
t-83 25.5q-42 0 -77 -9.5t-60 -21.5q-29 -14 -53 -31l9 70q22 16 51 29q26 12 60 20.5t78 8.5q66 0 103 -19.5t55 -50.5q57 68 162 68q87 0 137.5 -50t50.5 -156q0 -9 -0.5 -17.5t-0.5 -14.5q0 -8 -1 -15h-321zM592 440q-60 0 -90.5 -38.5t-36.5 -108.5h246q0 147 -119 147z
M378 236q-50 -5 -92.5 -12t-73.5 -19.5t-48.5 -32.5t-17.5 -51q0 -69 74 -69q39 0 68.5 11.5t49.5 31t30.5 46.5t10.5 57v38h-1z" />
    <glyph glyph-name="ccedilla" unicode="&#xe7;" horiz-adv-x="497" 
d="M149 246q0 -100 41 -145.5t110 -45.5q34 0 60.5 5.5t44.5 11.5q22 7 39 17l-11 -54q-13 -11 -32 -20q-18 -9 -42.5 -15.5t-59.5 -8.5l-27 -43l22 -5q14 -3 28.5 -6.5t26.5 -11t20 -20t8 -32.5q0 -35 -29 -56.5t-82 -21.5q-24 0 -41.5 3t-28.5 7q-14 4 -23 10l-5 52
q12 -10 27 -17q13 -7 30 -12t39 -5q26 0 39 10.5t13 27.5q0 21 -19.5 29t-40.5 14l-40 11l40 67q-41 3 -76.5 19.5t-61 47t-40 76t-14.5 106.5q0 63 18 110.5t49 79t73 47.5t89 16q36 0 62.5 -6t43.5 -13q20 -9 34 -20l11 -86q-17 18 -39 33q-21 13 -47.5 22.5t-61.5 9.5
q-70 0 -108.5 -44t-38.5 -144z" />
    <glyph glyph-name="egrave" unicode="&#xe8;" horiz-adv-x="529" 
d="M277 562l-144 143h105l106 -143h-67zM148 241q2 -94 46.5 -140t128.5 -46q34 0 61 5.5t46 11.5q23 7 40 17l-11 -54q-16 -12 -38 -22q-21 -9 -50 -15.5t-70 -6.5q-53 0 -97 14.5t-75 45.5t-48 78t-17 113q0 125 59 188.5t159 63.5q88 0 138.5 -50t50.5 -156
q0 -9 -0.5 -17.5t-0.5 -14.5q0 -8 -1 -15h-321zM277 441q-60 0 -90.5 -39t-37.5 -109h247q0 148 -119 148z" />
    <glyph glyph-name="eacute" unicode="&#xe9;" horiz-adv-x="529" 
d="M296 562h-66l104 143h103zM148 241q2 -94 46.5 -140t128.5 -46q34 0 61 5.5t46 11.5q23 7 40 17l-11 -54q-16 -12 -38 -22q-21 -9 -50 -15.5t-70 -6.5q-53 0 -97 14.5t-75 45.5t-48 78t-17 113q0 125 59 188.5t159 63.5q88 0 138.5 -50t50.5 -156q0 -9 -0.5 -17.5
t-0.5 -14.5q0 -8 -1 -15h-321zM277 441q-60 0 -90.5 -39t-37.5 -109h247q0 148 -119 148z" />
    <glyph glyph-name="ecircumflex" unicode="&#xea;" horiz-adv-x="529" 
d="M142 556l-32 22l140 124h56l140 -124l-32 -22l-136 79zM148 241q2 -94 46.5 -140t128.5 -46q34 0 61 5.5t46 11.5q23 7 40 17l-11 -54q-16 -12 -38 -22q-21 -9 -50 -15.5t-70 -6.5q-53 0 -97 14.5t-75 45.5t-48 78t-17 113q0 125 59 188.5t159 63.5q88 0 138.5 -50
t50.5 -156q0 -9 -0.5 -17.5t-0.5 -14.5q0 -8 -1 -15h-321zM277 441q-60 0 -90.5 -39t-37.5 -109h247q0 148 -119 148z" />
    <glyph glyph-name="edieresis" unicode="&#xeb;" horiz-adv-x="529" 
d="M239 594h-79v111h79v-111zM393 594h-78v111h78v-111zM148 241q2 -94 46.5 -140t128.5 -46q34 0 61 5.5t46 11.5q23 7 40 17l-11 -54q-16 -12 -38 -22q-21 -9 -50 -15.5t-70 -6.5q-53 0 -97 14.5t-75 45.5t-48 78t-17 113q0 125 59 188.5t159 63.5q88 0 138.5 -50
t50.5 -156q0 -9 -0.5 -17.5t-0.5 -14.5q0 -8 -1 -15h-321zM277 441q-60 0 -90.5 -39t-37.5 -109h247q0 148 -119 148z" />
    <glyph glyph-name="igrave" unicode="&#xec;" horiz-adv-x="247" 
d="M-21 705h105l106 -143h-67zM83 487h81v-487h-81v487z" />
    <glyph glyph-name="iacute" unicode="&#xed;" horiz-adv-x="247" 
d="M180 705h103l-141 -143h-66zM83 487h81v-487h-81v487z" />
    <glyph glyph-name="icircumflex" unicode="&#xee;" horiz-adv-x="247" 
d="M-44 578l140 124h56l140 -124l-32 -22l-136 79l-136 -79zM83 487h81v-487h-81v487z" />
    <glyph glyph-name="idieresis" unicode="&#xef;" horiz-adv-x="247" 
d="M6 705h79v-111h-79v111zM161 705h78v-111h-78v111zM83 487h81v-487h-81v487z" />
    <glyph glyph-name="eth" unicode="&#xf0;" horiz-adv-x="585" 
d="M411 617q48 -61 79.5 -147.5t31.5 -196.5q0 -70 -17 -123t-48.5 -88.5t-74.5 -53.5t-96 -18q-48 0 -88.5 15.5t-70 47t-46.5 78t-17 108.5q0 64 18.5 111t49.5 77.5t71 45t82 14.5q45 0 78 -14t57 -38q-11 41 -28 78t-43 72l-127 -65v61l91 46q-45 48 -110 88h96
q19 -11 38 -25t37 -32l132 67v-60zM288 50q33 0 61 11t48.5 36.5t31.5 66t11 98.5q0 44 -12 75.5t-32.5 51.5t-47.5 29.5t-57 9.5q-66 0 -104 -46t-38 -142q0 -100 37 -145t102 -45z" />
    <glyph glyph-name="ntilde" unicode="&#xf1;" horiz-adv-x="564" 
d="M208 631q-19 0 -35 -9t-27.5 -19.5t-18 -20t-6.5 -10.5l7 56q10 18 25 33q13 13 30 22.5t40 9.5q28 0 48.5 -10.5t37.5 -23t34 -23t38 -10.5q20 0 36 9t27 19.5t17.5 19.5t7.5 10l-7 -56q-10 -18 -25 -32q-13 -13 -30.5 -22.5t-40.5 -9.5q-28 0 -47.5 10.5t-37 23
t-34.5 23t-39 10.5zM337 496q78 0 113.5 -41t35.5 -113v-342h-81v331q0 45 -19.5 72t-69.5 27q-31 0 -58.5 -11t-48.5 -31.5t-33 -50t-12 -66.5v-271h-81v486h77v-85q26 44 71.5 69.5t105.5 25.5z" />
    <glyph glyph-name="ograve" unicode="&#xf2;" horiz-adv-x="585" 
d="M149 705h105l106 -143h-67zM295 -11q-50 0 -92.5 15t-73 46.5t-48 79.5t-17.5 113q0 64 17 111.5t48 79t73 47t93 15.5t92.5 -14.5t71 -45.5t46 -79t16.5 -114t-16.5 -113.5t-46.5 -79t-71.5 -46.5t-91.5 -15zM293 44q69 0 106 46.5t37 152.5q0 105 -37 151.5t-106 46.5
t-106.5 -47t-37.5 -151q0 -106 37.5 -152.5t106.5 -46.5z" />
    <glyph glyph-name="oacute" unicode="&#xf3;" horiz-adv-x="585" 
d="M350 705h103l-141 -143h-66zM295 -11q-50 0 -92.5 15t-73 46.5t-48 79.5t-17.5 113q0 64 17 111.5t48 79t73 47t93 15.5t92.5 -14.5t71 -45.5t46 -79t16.5 -114t-16.5 -113.5t-46.5 -79t-71.5 -46.5t-91.5 -15zM293 44q69 0 106 46.5t37 152.5q0 105 -37 151.5t-106 46.5
t-106.5 -47t-37.5 -151q0 -106 37.5 -152.5t106.5 -46.5z" />
    <glyph glyph-name="ocircumflex" unicode="&#xf4;" horiz-adv-x="585" 
d="M126 578l140 124h56l140 -124l-32 -22l-136 79l-136 -79zM295 -11q-50 0 -92.5 15t-73 46.5t-48 79.5t-17.5 113q0 64 17 111.5t48 79t73 47t93 15.5t92.5 -14.5t71 -45.5t46 -79t16.5 -114t-16.5 -113.5t-46.5 -79t-71.5 -46.5t-91.5 -15zM293 44q69 0 106 46.5
t37 152.5q0 105 -37 151.5t-106 46.5t-106.5 -47t-37.5 -151q0 -106 37.5 -152.5t106.5 -46.5z" />
    <glyph glyph-name="otilde" unicode="&#xf5;" horiz-adv-x="585" 
d="M365 564q-28 0 -47.5 10.5t-37 23t-34.5 23t-39 10.5q-19 0 -35 -9t-27.5 -19.5t-18 -20t-6.5 -10.5l7 56q10 18 25 33q13 13 30 22.5t40 9.5q28 0 48.5 -10.5t37.5 -23t34 -23t38 -10.5q20 0 36 9t27 19.5t17.5 19.5t7.5 10l-7 -56q-10 -18 -25 -32q-13 -13 -30.5 -22.5
t-40.5 -9.5zM295 -11q-50 0 -92.5 15t-73 46.5t-48 79.5t-17.5 113q0 64 17 111.5t48 79t73 47t93 15.5t92.5 -14.5t71 -45.5t46 -79t16.5 -114t-16.5 -113.5t-46.5 -79t-71.5 -46.5t-91.5 -15zM293 44q69 0 106 46.5t37 152.5q0 105 -37 151.5t-106 46.5t-106.5 -47
t-37.5 -151q0 -106 37.5 -152.5t106.5 -46.5z" />
    <glyph glyph-name="odieresis" unicode="&#xf6;" horiz-adv-x="585" 
d="M176 705h79v-111h-79v111zM331 705h78v-111h-78v111zM295 -11q-50 0 -92.5 15t-73 46.5t-48 79.5t-17.5 113q0 64 17 111.5t48 79t73 47t93 15.5t92.5 -14.5t71 -45.5t46 -79t16.5 -114t-16.5 -113.5t-46.5 -79t-71.5 -46.5t-91.5 -15zM293 44q69 0 106 46.5t37 152.5
q0 105 -37 151.5t-106 46.5t-106.5 -47t-37.5 -151q0 -106 37.5 -152.5t106.5 -46.5z" />
    <glyph glyph-name="divide" unicode="&#xf7;" 
d="M266 486h80v-111h-80v111zM89 298h433v-59h-433v59zM266 161h80v-112h-80v112z" />
    <glyph glyph-name="oslash" unicode="&#xf8;" horiz-adv-x="585" 
d="M435 456q42 -29 64 -81.5t22 -131.5q0 -66 -16.5 -113.5t-46.5 -79t-71.5 -46.5t-91.5 -15q-41 0 -79 11l-32 -66h-63l43 89q-47 29 -73.5 83.5t-26.5 136.5q0 64 17 111.5t48 79t73 47t93 15.5q48 0 90 -14l34 69h62zM149 243q0 -111 44 -160l166 344q-30 14 -66 14
q-69 0 -106.5 -47t-37.5 -151zM293 44q69 0 106 46.5t37 152.5q0 95 -33 145l-162 -336q26 -8 52 -8z" />
    <glyph glyph-name="ugrave" unicode="&#xf9;" horiz-adv-x="562" 
d="M281 562l-144 143h105l106 -143h-67zM479 487v-487h-76v85q-27 -44 -72 -69.5t-105 -25.5q-77 0 -112.5 41t-35.5 113v343h81v-334q0 -45 19.5 -72t69.5 -27q30 0 57.5 11.5t48 32.5t32.5 50.5t12 66.5v272h81z" />
    <glyph glyph-name="uacute" unicode="&#xfa;" horiz-adv-x="562" 
d="M300 562h-66l104 143h103zM479 487v-487h-76v85q-27 -44 -72 -69.5t-105 -25.5q-77 0 -112.5 41t-35.5 113v343h81v-334q0 -45 19.5 -72t69.5 -27q30 0 57.5 11.5t48 32.5t32.5 50.5t12 66.5v272h81z" />
    <glyph glyph-name="ucircumflex" unicode="&#xfb;" horiz-adv-x="562" 
d="M146 556l-32 22l140 124h56l140 -124l-32 -22l-136 79zM479 487v-487h-76v85q-27 -44 -72 -69.5t-105 -25.5q-77 0 -112.5 41t-35.5 113v343h81v-334q0 -45 19.5 -72t69.5 -27q30 0 57.5 11.5t48 32.5t32.5 50.5t12 66.5v272h81z" />
    <glyph glyph-name="udieresis" unicode="&#xfc;" horiz-adv-x="562" 
d="M243 594h-79v111h79v-111zM397 594h-78v111h78v-111zM479 487v-487h-76v85q-27 -44 -72 -69.5t-105 -25.5q-77 0 -112.5 41t-35.5 113v343h81v-334q0 -45 19.5 -72t69.5 -27q30 0 57.5 11.5t48 32.5t32.5 50.5t12 66.5v272h81z" />
    <glyph glyph-name="yacute" unicode="&#xfd;" horiz-adv-x="518" 
d="M283 562h-66l104 143h103zM484 487l-209 -539q-32 -81 -71.5 -114.5t-96.5 -33.5q-12 0 -22.5 1.5t-17.5 3.5q-10 3 -17 6l-9 70q8 -3 18 -6q9 -2 21 -3.5t27 -1.5q25 0 43 9t33 27t27.5 44t25.5 61l-202 476h92l152 -377l134 377h72z" />
    <glyph glyph-name="thorn" unicode="&#xfe;" horiz-adv-x="581" 
d="M325 495q86 0 139 -62.5t53 -190.5q0 -64 -16.5 -111.5t-44.5 -79t-64.5 -46.5t-76.5 -15q-55 0 -93 22t-61 59v-263h-78v907h78v-310q25 41 66 65.5t98 24.5zM301 53q65 0 98 44t33 144q0 97 -31.5 143.5t-96.5 46.5q-30 0 -56 -12t-45.5 -35.5t-30.5 -59t-11 -83.5
q0 -95 40.5 -141.5t99.5 -46.5z" />
    <glyph glyph-name="ydieresis" unicode="&#xff;" horiz-adv-x="518" 
d="M226 594h-79v111h79v-111zM380 594h-78v111h78v-111zM484 487l-209 -539q-32 -81 -71.5 -114.5t-96.5 -33.5q-12 0 -22.5 1.5t-17.5 3.5q-10 3 -17 6l-9 70q8 -3 18 -6q9 -2 21 -3.5t27 -1.5q25 0 43 9t33 27t27.5 44t25.5 61l-202 476h92l152 -377l134 377h72z" />
    <glyph glyph-name="Amacron" unicode="&#x100;" horiz-adv-x="706" 
d="M506 796h-308l5 58h299zM485 234h-286l-83 -234h-77l271 715h84l273 -715h-95zM466 287l-127 340l-121 -340h248z" />
    <glyph glyph-name="amacron" unicode="&#x101;" horiz-adv-x="537" 
d="M435 601h-308l5 58h299zM280 496q54 0 88.5 -14t54.5 -37t27.5 -52.5t7.5 -59.5v-333h-78v76q-25 -38 -68.5 -62t-106.5 -24q-75 0 -110.5 34t-35.5 89q0 48 25 78.5t67.5 49t99.5 28t121 14.5h6v49q0 48 -25.5 72.5t-84.5 24.5q-40 0 -74.5 -9.5t-59.5 -20.5
q-30 -14 -54 -31l9 71q22 16 51 29q26 11 60.5 19.5t79.5 8.5zM227 48q35 0 63 12t47.5 32t30 47t10.5 57v40l-4 -1q-48 -4 -91 -11t-74.5 -19.5t-50 -33t-18.5 -52.5q0 -33 21.5 -52t65.5 -19z" />
    <glyph glyph-name="Abreve" unicode="&#x102;" horiz-adv-x="706" 
d="M353 757q-41 0 -70 13t-48 30q-23 18 -38 42l-6 51q18 -19 42 -33q22 -14 51 -24t69 -10t69.5 10.5t50.5 23.5q24 14 41 33l-5 -51q-15 -24 -38 -42q-20 -18 -49 -30.5t-69 -12.5zM485 234h-286l-83 -234h-77l271 715h84l273 -715h-95zM466 287l-127 340l-121 -340h248z
" />
    <glyph glyph-name="abreve" unicode="&#x103;" horiz-adv-x="537" 
d="M282 562q-41 0 -70 13t-48 30q-23 18 -38 42l-6 51q18 -19 42 -33q22 -14 51 -24t69 -10t69.5 10.5t50.5 23.5q24 14 41 33l-5 -51q-15 -24 -38 -42q-20 -18 -49 -30.5t-69 -12.5zM280 496q54 0 88.5 -14t54.5 -37t27.5 -52.5t7.5 -59.5v-333h-78v76q-25 -38 -68.5 -62
t-106.5 -24q-75 0 -110.5 34t-35.5 89q0 48 25 78.5t67.5 49t99.5 28t121 14.5h6v49q0 48 -25.5 72.5t-84.5 24.5q-40 0 -74.5 -9.5t-59.5 -20.5q-30 -14 -54 -31l9 71q22 16 51 29q26 11 60.5 19.5t79.5 8.5zM227 48q35 0 63 12t47.5 32t30 47t10.5 57v40l-4 -1
q-48 -4 -91 -11t-74.5 -19.5t-50 -33t-18.5 -52.5q0 -33 21.5 -52t65.5 -19z" />
    <glyph glyph-name="Aogonek" unicode="&#x104;" horiz-adv-x="706" 
d="M602 -159q21 0 37.5 3.5t27.5 8.5q13 5 23 12l-7 -48q-10 -6 -23 -10t-30 -7t-41 -3q-56 0 -85 24t-29 63q0 22 9.5 41.5t26 34.5t38 25t45.5 15h-22l-87 234h-286l-83 -234h-77l271 715h84l273 -715h-22q-45 -23 -72.5 -46.5t-27.5 -58.5q0 -26 13.5 -40t43.5 -14z
M466 287l-127 340l-121 -340h248z" />
    <glyph glyph-name="aogonek" unicode="&#x105;" horiz-adv-x="537" 
d="M394 -159q21 0 37.5 3.5t27.5 8.5q13 5 23 12l-7 -48q-10 -6 -23 -10t-30 -7t-41 -3q-56 0 -85 24t-29 63q0 22 9.5 41.5t26 34.5t38 25t45.5 15h-6v76q-25 -38 -68.5 -62t-106.5 -24q-75 0 -110.5 34t-35.5 89q0 48 25 78.5t67.5 49t99.5 28t121 14.5h6v49
q0 48 -25.5 72.5t-84.5 24.5q-40 0 -74.5 -9.5t-59.5 -20.5q-30 -14 -54 -31l9 71q22 16 51 29q26 11 60.5 19.5t79.5 8.5q54 0 88.5 -14t54.5 -37t27.5 -52.5t7.5 -59.5v-333h-21q-45 -23 -72.5 -46.5t-27.5 -58.5q0 -26 13.5 -40t43.5 -14zM227 48q35 0 63 12t47.5 32
t30 47t10.5 57v40l-4 -1q-48 -4 -91 -11t-74.5 -19.5t-50 -33t-18.5 -52.5q0 -33 21.5 -52t65.5 -19z" />
    <glyph glyph-name="Cacute" unicode="&#x106;" horiz-adv-x="678" 
d="M439 900h103l-141 -143h-66zM382 -9q-66 0 -123 21.5t-99.5 66.5t-66.5 114t-24 164t25 164t67.5 114.5t100 67.5t121.5 22q57 0 98 -9.5t69 -20.5q31 -14 53 -31l12 -104q-25 28 -60 50q-31 20 -72.5 35t-96.5 15q-50 0 -91.5 -17t-71.5 -53t-46.5 -92.5t-16.5 -135.5
q0 -82 18 -139.5t50.5 -93.5t76 -52.5t94.5 -16.5q49 0 89 9t68 21q33 12 59 29l-9 -63q-23 -18 -55 -32q-30 -14 -71 -23.5t-98 -9.5z" />
    <glyph glyph-name="cacute" unicode="&#x107;" horiz-adv-x="497" 
d="M337 705h103l-141 -143h-66zM279 -9q-46 0 -85 14.5t-68 45t-45.5 77.5t-16.5 113q0 63 18 110.5t49 79t73 47.5t89 16q36 0 62.5 -6t43.5 -13q20 -9 34 -20l11 -86q-17 18 -39 33q-21 13 -47.5 22.5t-61.5 9.5q-70 0 -108.5 -44t-38.5 -144t41 -145.5t110 -45.5
q34 0 60.5 5.5t44.5 11.5q22 7 39 17l-11 -54q-15 -12 -37 -22q-20 -9 -48.5 -15.5t-68.5 -6.5z" />
    <glyph glyph-name="Cdotaccent" unicode="&#x10a;" horiz-adv-x="678" 
d="M342 900h82v-111h-82v111zM382 -9q-66 0 -123 21.5t-99.5 66.5t-66.5 114t-24 164t25 164t67.5 114.5t100 67.5t121.5 22q57 0 98 -9.5t69 -20.5q31 -14 53 -31l12 -104q-25 28 -60 50q-31 20 -72.5 35t-96.5 15q-50 0 -91.5 -17t-71.5 -53t-46.5 -92.5t-16.5 -135.5
q0 -82 18 -139.5t50.5 -93.5t76 -52.5t94.5 -16.5q49 0 89 9t68 21q33 12 59 29l-9 -63q-23 -18 -55 -32q-30 -14 -71 -23.5t-98 -9.5z" />
    <glyph glyph-name="cdotaccent" unicode="&#x10b;" horiz-adv-x="497" 
d="M240 705h82v-111h-82v111zM279 -9q-46 0 -85 14.5t-68 45t-45.5 77.5t-16.5 113q0 63 18 110.5t49 79t73 47.5t89 16q36 0 62.5 -6t43.5 -13q20 -9 34 -20l11 -86q-17 18 -39 33q-21 13 -47.5 22.5t-61.5 9.5q-70 0 -108.5 -44t-38.5 -144t41 -145.5t110 -45.5
q34 0 60.5 5.5t44.5 11.5q22 7 39 17l-11 -54q-15 -12 -37 -22q-20 -9 -48.5 -15.5t-68.5 -6.5z" />
    <glyph glyph-name="Ccaron" unicode="&#x10c;" horiz-adv-x="678" 
d="M215 876l31 22l137 -79l135 79l33 -22l-140 -125h-56zM382 -9q-66 0 -123 21.5t-99.5 66.5t-66.5 114t-24 164t25 164t67.5 114.5t100 67.5t121.5 22q57 0 98 -9.5t69 -20.5q31 -14 53 -31l12 -104q-25 28 -60 50q-31 20 -72.5 35t-96.5 15q-50 0 -91.5 -17t-71.5 -53
t-46.5 -92.5t-16.5 -135.5q0 -82 18 -139.5t50.5 -93.5t76 -52.5t94.5 -16.5q49 0 89 9t68 21q33 12 59 29l-9 -63q-23 -18 -55 -32q-30 -14 -71 -23.5t-98 -9.5z" />
    <glyph glyph-name="ccaron" unicode="&#x10d;" horiz-adv-x="497" 
d="M113 681l31 22l137 -79l135 79l33 -22l-140 -125h-56zM279 -9q-46 0 -85 14.5t-68 45t-45.5 77.5t-16.5 113q0 63 18 110.5t49 79t73 47.5t89 16q36 0 62.5 -6t43.5 -13q20 -9 34 -20l11 -86q-17 18 -39 33q-21 13 -47.5 22.5t-61.5 9.5q-70 0 -108.5 -44t-38.5 -144
t41 -145.5t110 -45.5q34 0 60.5 5.5t44.5 11.5q22 7 39 17l-11 -54q-15 -12 -37 -22q-20 -9 -48.5 -15.5t-68.5 -6.5z" />
    <glyph glyph-name="Dcaron" unicode="&#x10e;" horiz-adv-x="722" 
d="M303 751l-140 125l31 22l137 -79l135 79l33 -22l-140 -125h-56zM314 715q72 0 134 -20t107.5 -62.5t71.5 -109.5t26 -162q0 -94 -27 -162.5t-74 -112.5t-110 -65t-135 -21h-219v715h226zM305 58q57 0 104.5 17t81.5 54t52.5 94t18.5 136t-18.5 135.5t-51.5 92.5t-80 53
t-104 17h-133v-599h130z" />
    <glyph glyph-name="dcaron" unicode="&#x10f;" horiz-adv-x="665" 
d="M670 725l-57 -215h-54l25 215h86zM417 715h81v-715h-79v84q-25 -42 -65.5 -67.5t-97.5 -25.5q-85 0 -138.5 63t-53.5 190q0 65 16.5 112t44.5 78.5t64.5 46.5t76.5 15q54 0 91 -22t60 -58v299zM277 55q29 0 54 12t44.5 35.5t30.5 59t11 83.5t-10.5 83t-29.5 58
t-43.5 34.5t-53.5 11.5q-65 0 -98 -43.5t-33 -143.5q0 -97 31.5 -143.5t96.5 -46.5z" />
    <glyph glyph-name="Dcroat" unicode="&#x110;" horiz-adv-x="742" 
d="M334 715q72 0 134 -20t107.5 -62.5t71.5 -109.5t26 -162q0 -94 -27 -162.5t-73.5 -112.5t-110 -65t-135.5 -21h-218v338h-74v54h74v323h225zM325 58q58 0 105.5 17t81 54t52 94t18.5 136t-18 135.5t-51.5 92.5t-80.5 53t-104 17h-133v-265h194v-54h-194v-280h130z" />
    <glyph glyph-name="dcroat" unicode="&#x111;" horiz-adv-x="582" 
d="M498 594v-594h-79v84q-25 -42 -65.5 -67.5t-97.5 -25.5q-85 0 -138.5 63t-53.5 190q0 65 16.5 112t44.5 78.5t64.5 46.5t76.5 15q54 0 91 -22t60 -58v178h-201v50h201v71h81v-71h60l4 -50h-64zM277 55q29 0 54 12t44.5 35.5t30.5 59t11 83.5t-10.5 83t-29.5 58
t-43.5 34.5t-53.5 11.5q-65 0 -98 -43.5t-33 -143.5q0 -97 31.5 -143.5t96.5 -46.5z" />
    <glyph glyph-name="Emacron" unicode="&#x112;" horiz-adv-x="586" 
d="M459 796h-308l5 58h299zM527 62l-6 -62h-433v715h430l5 -62h-348v-261h303v-54h-303v-276h352z" />
    <glyph glyph-name="emacron" unicode="&#x113;" horiz-adv-x="529" 
d="M431 601h-308l5 58h299zM148 241q2 -94 46.5 -140t128.5 -46q34 0 61 5.5t46 11.5q23 7 40 17l-11 -54q-16 -12 -38 -22q-21 -9 -50 -15.5t-70 -6.5q-53 0 -97 14.5t-75 45.5t-48 78t-17 113q0 125 59 188.5t159 63.5q88 0 138.5 -50t50.5 -156q0 -9 -0.5 -17.5
t-0.5 -14.5q0 -8 -1 -15h-321zM277 441q-60 0 -90.5 -39t-37.5 -109h247q0 148 -119 148z" />
    <glyph glyph-name="Edotaccent" unicode="&#x116;" horiz-adv-x="586" 
d="M347 789h-82v111h82v-111zM527 62l-6 -62h-433v715h430l5 -62h-348v-261h303v-54h-303v-276h352z" />
    <glyph glyph-name="edotaccent" unicode="&#x117;" horiz-adv-x="529" 
d="M319 594h-82v111h82v-111zM148 241q2 -94 46.5 -140t128.5 -46q34 0 61 5.5t46 11.5q23 7 40 17l-11 -54q-16 -12 -38 -22q-21 -9 -50 -15.5t-70 -6.5q-53 0 -97 14.5t-75 45.5t-48 78t-17 113q0 125 59 188.5t159 63.5q88 0 138.5 -50t50.5 -156q0 -9 -0.5 -17.5
t-0.5 -14.5q0 -8 -1 -15h-321zM277 441q-60 0 -90.5 -39t-37.5 -109h247q0 148 -119 148z" />
    <glyph glyph-name="Eogonek" unicode="&#x118;" horiz-adv-x="586" 
d="M450 -159q21 0 37.5 3.5t27.5 8.5q13 5 23 12l-7 -48q-10 -6 -23 -10t-30 -7t-41 -3q-56 0 -85 24t-29 63q0 22 9.5 41.5t26 34.5t38 25t45.5 15h-354v715h430l5 -62h-348v-261h303v-54h-303v-276h352l-6 -62h-28q-45 -23 -72.5 -46.5t-27.5 -58.5q0 -26 13.5 -40
t43.5 -14z" />
    <glyph glyph-name="eogonek" unicode="&#x119;" horiz-adv-x="529" 
d="M416 11q-44 -22 -70 -45.5t-26 -57.5q0 -26 13.5 -40t43.5 -14q21 0 37.5 3.5t27.5 8.5q13 5 23 12l-7 -48q-10 -6 -23 -10t-30 -7t-41 -3q-56 0 -85 24t-29 63q0 30 17 54t43 40h-9q-53 0 -97 14.5t-75 45.5t-48 78t-17 113q0 125 59 188.5t159 63.5q88 0 138.5 -50
t50.5 -156q0 -9 -0.5 -17.5t-0.5 -14.5q0 -8 -1 -15h-321q2 -94 46.5 -140t128.5 -46q34 0 61 5.5t46 11.5q23 7 40 17l-11 -54q-4 -4 -11 -8q-5 -4 -13 -8t-19 -8zM277 441q-60 0 -90.5 -39t-37.5 -109h247q0 148 -119 148z" />
    <glyph glyph-name="Ecaron" unicode="&#x11a;" horiz-adv-x="586" 
d="M278 751l-140 125l31 22l137 -79l135 79l33 -22l-140 -125h-56zM527 62l-6 -62h-433v715h430l5 -62h-348v-261h303v-54h-303v-276h352z" />
    <glyph glyph-name="ecaron" unicode="&#x11b;" horiz-adv-x="529" 
d="M250 556l-140 125l31 22l137 -79l135 79l33 -22l-140 -125h-56zM148 241q2 -94 46.5 -140t128.5 -46q34 0 61 5.5t46 11.5q23 7 40 17l-11 -54q-16 -12 -38 -22q-21 -9 -50 -15.5t-70 -6.5q-53 0 -97 14.5t-75 45.5t-48 78t-17 113q0 125 59 188.5t159 63.5
q88 0 138.5 -50t50.5 -156q0 -9 -0.5 -17.5t-0.5 -14.5q0 -8 -1 -15h-321zM277 441q-60 0 -90.5 -39t-37.5 -109h247q0 148 -119 148z" />
    <glyph glyph-name="Gbreve" unicode="&#x11e;" horiz-adv-x="722" 
d="M392 757q-41 0 -70 13t-48 30q-23 18 -38 42l-6 51q18 -19 42 -33q22 -14 51 -24t69 -10t69.5 10.5t50.5 23.5q24 14 41 33l-5 -51q-15 -24 -38 -42q-20 -18 -49 -30.5t-69 -12.5zM387 -9q-67 0 -125 21.5t-101 66.5t-67.5 114t-24.5 164t25.5 164.5t69.5 114.5t102.5 67
t125.5 22q61 0 104 -10.5t70 -22.5q33 -15 54 -34l12 -98q-26 28 -61 50q-33 20 -75.5 35t-99.5 15q-52 0 -95.5 -17t-74.5 -53t-48.5 -92.5t-17.5 -135.5q0 -82 19.5 -139.5t54 -93.5t80.5 -52.5t100 -16.5q32 0 58 3t44 7q22 4 39 10v189h-154v53h238v-263
q-27 -19 -64 -34q-34 -14 -80 -24t-108 -10z" />
    <glyph glyph-name="gbreve" unicode="&#x11f;" horiz-adv-x="579" 
d="M302 562q-41 0 -70 13t-48 30q-23 18 -38 42l-6 51q18 -19 42 -33q22 -14 51 -24t69 -10t69.5 10.5t50.5 23.5q24 14 41 33l-5 -51q-15 -24 -38 -42q-20 -18 -49 -30.5t-69 -12.5zM496 486v-502q0 -35 -11 -68t-36.5 -58.5t-68.5 -41.5t-108 -16q-43 0 -75.5 9.5
t-54.5 20.5q-26 13 -45 30l-10 73q22 -18 50 -33q26 -13 60 -22.5t78 -9.5q68 0 104 29t36 85v114q-25 -38 -65 -62t-96 -24q-85 0 -137.5 60t-52.5 183q0 62 16 108t43.5 76t64 44.5t76.5 14.5q55 0 93 -22t61 -59v71h78zM275 74q29 0 54 11t44.5 33.5t30.5 56t11 79.5
t-10.5 79.5t-29.5 55.5t-43.5 33t-53.5 11q-65 0 -97 -42.5t-32 -136.5q0 -92 30.5 -136t95.5 -44z" />
    <glyph glyph-name="Gdotaccent" unicode="&#x120;" horiz-adv-x="722" 
d="M351 900h82v-111h-82v111zM387 -9q-67 0 -125 21.5t-101 66.5t-67.5 114t-24.5 164t25.5 164.5t69.5 114.5t102.5 67t125.5 22q61 0 104 -10.5t70 -22.5q33 -15 54 -34l12 -98q-26 28 -61 50q-33 20 -75.5 35t-99.5 15q-52 0 -95.5 -17t-74.5 -53t-48.5 -92.5
t-17.5 -135.5q0 -82 19.5 -139.5t54 -93.5t80.5 -52.5t100 -16.5q32 0 58 3t44 7q22 4 39 10v189h-154v53h238v-263q-27 -19 -64 -34q-34 -14 -80 -24t-108 -10z" />
    <glyph glyph-name="gdotaccent" unicode="&#x121;" horiz-adv-x="579" 
d="M343 594h-82v111h82v-111zM496 486v-502q0 -35 -11 -68t-36.5 -58.5t-68.5 -41.5t-108 -16q-43 0 -75.5 9.5t-54.5 20.5q-26 13 -45 30l-10 73q22 -18 50 -33q26 -13 60 -22.5t78 -9.5q68 0 104 29t36 85v114q-25 -38 -65 -62t-96 -24q-85 0 -137.5 60t-52.5 183
q0 62 16 108t43.5 76t64 44.5t76.5 14.5q55 0 93 -22t61 -59v71h78zM275 74q29 0 54 11t44.5 33.5t30.5 56t11 79.5t-10.5 79.5t-29.5 55.5t-43.5 33t-53.5 11q-65 0 -97 -42.5t-32 -136.5q0 -92 30.5 -136t95.5 -44z" />
    <glyph glyph-name="Gcommaaccent" unicode="&#x122;" horiz-adv-x="722" 
d="M387 -9q-67 0 -125 21.5t-101 66.5t-67.5 114t-24.5 164t25.5 164.5t69.5 114.5t102.5 67t125.5 22q61 0 104 -10.5t70 -22.5q33 -15 54 -34l12 -98q-26 28 -61 50q-33 20 -75.5 35t-99.5 15q-52 0 -95.5 -17t-74.5 -53t-48.5 -92.5t-17.5 -135.5q0 -82 19.5 -139.5
t54 -93.5t80.5 -52.5t100 -16.5q32 0 58 3t44 7q22 4 39 10v189h-154v53h238v-263q-27 -19 -64 -34q-34 -14 -80 -24t-108 -10zM346 -68h90l-58 -166h-58z" />
    <glyph glyph-name="gcommaaccent" unicode="&#x123;" horiz-adv-x="581" 
d="M343 582h-90l58 166h58zM496 486v-502q0 -35 -11 -68t-36.5 -58.5t-68.5 -41.5t-108 -16q-43 0 -75.5 9.5t-54.5 20.5q-26 13 -45 30l-10 73q22 -18 50 -33q26 -13 60 -22.5t78 -9.5q68 0 104 29t36 85v114q-25 -38 -65 -62t-96 -24q-85 0 -137.5 60t-52.5 183
q0 62 16 108t43.5 76t64 44.5t76.5 14.5q55 0 93 -22t61 -59v71h78zM275 74q29 0 54 11t44.5 33.5t30.5 56t11 79.5t-10.5 79.5t-29.5 55.5t-43.5 33t-53.5 11q-65 0 -97 -42.5t-32 -136.5q0 -92 30.5 -136t95.5 -44z" />
    <glyph glyph-name="Hbar" unicode="&#x126;" horiz-adv-x="754" 
d="M724 542h-82v-542h-86v338h-361v-338h-87v542h-79v52h79v121h87v-121h361v121h86v-121h82v-52zM556 542h-361v-150h361v150z" />
    <glyph glyph-name="hbar" unicode="&#x127;" horiz-adv-x="564" 
d="M338 496q77 0 112.5 -41t35.5 -113v-342h-81v333q0 45 -19.5 72t-69.5 27q-30 0 -57.5 -11.5t-48.5 -32.5t-33 -50.5t-12 -66.5v-271h-81v593h-55v50h55v72h81v-72h207l4 -50h-211v-185q28 41 72 64.5t101 23.5z" />
    <glyph glyph-name="Imacron" unicode="&#x12a;" horiz-adv-x="263" 
d="M-17 854h299l4 -58h-309zM88 715h87v-715h-87v715z" />
    <glyph glyph-name="imacron" unicode="&#x12b;" horiz-adv-x="247" 
d="M-26 659h299l4 -58h-309zM83 487h81v-487h-81v487z" />
    <glyph glyph-name="Iogonek" unicode="&#x12e;" horiz-adv-x="263" 
d="M126 -159q21 0 37.5 3.5t27.5 8.5q13 5 23 12l-7 -48q-10 -6 -23 -10t-30 -7t-41 -3q-56 0 -85 24t-29 63q0 22 9.5 41.5t26 34.5t38 25t45.5 15h-30v715h87v-715h-6q-45 -23 -72.5 -46.5t-27.5 -58.5q0 -26 13.5 -40t43.5 -14z" />
    <glyph glyph-name="iogonek" unicode="&#x12f;" horiz-adv-x="247" 
d="M165 594h-82v111h82v-111zM115 -159q21 0 37.5 3.5t27.5 8.5q13 5 23 12l-7 -48q-10 -6 -23 -10t-30 -7t-41 -3q-56 0 -85 24t-29 63q0 22 9.5 41.5t26 34.5t38 25t45.5 15h-24v487h81v-487h-6q-45 -23 -72.5 -46.5t-27.5 -58.5q0 -26 13.5 -40t43.5 -14z" />
    <glyph glyph-name="Idotaccent" unicode="&#x130;" horiz-adv-x="263" 
d="M92 900h82v-111h-82v111zM88 715h87v-715h-87v715z" />
    <glyph glyph-name="dotlessi" unicode="&#x131;" horiz-adv-x="247" 
d="M83 487h81v-487h-81v487z" />
    <glyph glyph-name="IJ" unicode="&#x132;" horiz-adv-x="653" 
d="M88 715h87v-715h-87v715zM409 -8q-24 0 -42 3.5t-30 7.5q-15 5 -25 11l-10 68q12 -6 27 -10q13 -5 30 -8t38 -3q38 0 62.5 22.5t24.5 80.5v551h86v-551q0 -47 -13.5 -80t-36 -53.5t-51.5 -29.5t-60 -9z" />
    <glyph glyph-name="ij" unicode="&#x133;" horiz-adv-x="495" 
d="M83 705h81v-111h-81v111zM330 705h82v-111h-82v111zM280 -202q-14 0 -25.5 2.5t-20.5 4.5q-9 4 -17 8l-5 54q6 -2 13 -4q6 -1 13.5 -2t16.5 -1q37 0 56 21.5t19 70.5v534h81v-529q0 -42 -10.5 -72.5t-28.5 -49.5t-42 -28t-50 -9zM83 486h81v-486h-81v486z" />
    <glyph glyph-name="Kcommaaccent" unicode="&#x136;" horiz-adv-x="670" 
d="M626 0h-107l-233 357l-111 -121v-236h-87v715h86v-396l347 396h94l-268 -292zM298 -68h90l-58 -166h-58z" />
    <glyph glyph-name="kcommaaccent" unicode="&#x137;" horiz-adv-x="523" 
d="M494 0h-94l-150 250l-86 -87v-163h-81v715h80v-481l231 252h88l-176 -179zM239 -68h90l-58 -166h-58z" />
    <glyph glyph-name="Lacute" unicode="&#x139;" horiz-adv-x="560" 
d="M299 757h-66l104 143h103zM511 59l-5 -59h-418v715h87v-656h336z" />
    <glyph glyph-name="lacute" unicode="&#x13a;" horiz-adv-x="247" 
d="M179 900h103l-141 -143h-66zM83 715h81v-715h-81v715z" />
    <glyph glyph-name="Lcommaaccent" unicode="&#x13b;" horiz-adv-x="560" 
d="M511 59l-5 -59h-418v715h87v-656h336zM261 -68h90l-58 -166h-58z" />
    <glyph glyph-name="lcommaaccent" unicode="&#x13c;" horiz-adv-x="247" 
d="M83 715h81v-715h-81v715zM81 -68h90l-58 -166h-58z" />
    <glyph glyph-name="Lcaron" unicode="&#x13d;" horiz-adv-x="560" 
d="M511 59l-5 -59h-418v715h87v-656h336zM377 499h-59l35 216h91z" />
    <glyph glyph-name="lcaron" unicode="&#x13e;" horiz-adv-x="329" 
d="M248 725h86l-57 -215h-54zM83 715h81v-715h-81v715z" />
    <glyph glyph-name="Ldot" unicode="&#x13f;" horiz-adv-x="560" 
d="M511 59l-5 -59h-418v715h87v-656h336zM395 266h-80v113h80v-113z" />
    <glyph glyph-name="ldot" unicode="&#x140;" horiz-adv-x="342" 
d="M83 715h81v-715h-81v715zM242 377h80v-113h-80v113z" />
    <glyph glyph-name="Lslash" unicode="&#x141;" horiz-adv-x="560" 
d="M511 59l-4 -59h-418v320l-84 -37v59l84 36v337h86v-299l186 82v-60l-186 -81v-298h336z" />
    <glyph glyph-name="lslash" unicode="&#x142;" horiz-adv-x="256" 
d="M231 434l-62 -40v-394h-81v343l-63 -41v62l63 41v310h81v-258l62 40v-63z" />
    <glyph glyph-name="Nacute" unicode="&#x143;" horiz-adv-x="716" 
d="M380 757h-66l104 143h103zM628 715v-715h-99l-369 617v-617h-72v715h113l355 -598v598h72z" />
    <glyph glyph-name="nacute" unicode="&#x144;" horiz-adv-x="564" 
d="M313 562h-66l104 143h103zM337 496q78 0 113.5 -41t35.5 -113v-342h-81v331q0 45 -19.5 72t-69.5 27q-31 0 -58.5 -11t-48.5 -31.5t-33 -50t-12 -66.5v-271h-81v486h77v-85q26 44 71.5 69.5t105.5 25.5z" />
    <glyph glyph-name="Ncommaaccent" unicode="&#x145;" horiz-adv-x="716" 
d="M628 715v-715h-99l-369 617v-617h-72v715h113l355 -598v598h72zM317 -68h90l-58 -166h-58z" />
    <glyph glyph-name="ncommaaccent" unicode="&#x146;" horiz-adv-x="564" 
d="M337 496q78 0 113.5 -41t35.5 -113v-342h-81v331q0 45 -19.5 72t-69.5 27q-31 0 -58.5 -11t-48.5 -31.5t-33 -50t-12 -66.5v-271h-81v486h77v-85q26 44 71.5 69.5t105.5 25.5zM243 -68h90l-58 -166h-58z" />
    <glyph glyph-name="Ncaron" unicode="&#x147;" horiz-adv-x="716" 
d="M334 751l-140 125l31 22l137 -79l135 79l33 -22l-140 -125h-56zM628 715v-715h-99l-369 617v-617h-72v715h113l355 -598v598h72z" />
    <glyph glyph-name="ncaron" unicode="&#x148;" horiz-adv-x="564" 
d="M267 556l-140 125l31 22l137 -79l135 79l33 -22l-140 -125h-56zM337 496q78 0 113.5 -41t35.5 -113v-342h-81v331q0 45 -19.5 72t-69.5 27q-31 0 -58.5 -11t-48.5 -31.5t-33 -50t-12 -66.5v-271h-81v486h77v-85q26 44 71.5 69.5t105.5 25.5z" />
    <glyph glyph-name="Eng" unicode="&#x14a;" horiz-adv-x="715" 
d="M502 -202q-14 0 -25.5 2.5t-20.5 4.5q-9 4 -17 8l-5 49q6 -2 13 -4q6 -1 13.5 -2t16.5 -1q37 0 59 21.5t22 69.5v54l-401 615v-615h-69v715h107l363 -566v566h69v-763q0 -82 -36 -118t-89 -36z" />
    <glyph glyph-name="eng" unicode="&#x14b;" horiz-adv-x="562" 
d="M336 497q77 0 112.5 -41.5t35.5 -113.5v-383q0 -43 -10.5 -73t-28.5 -49t-42 -28t-50 -9q-14 0 -25.5 2.5t-20.5 4.5q-9 4 -17 8l-5 55q6 -2 13 -4q7 -1 14.5 -2t16.5 -1q36 0 55.5 21t19.5 69v376q0 45 -19.5 72t-69.5 27q-31 0 -58.5 -10.5t-48.5 -31t-33 -49.5
t-12 -66v-271h-80v487h76v-86q26 44 71.5 70t105.5 26z" />
    <glyph glyph-name="Omacron" unicode="&#x14c;" horiz-adv-x="797" 
d="M250 854h299l4 -58h-308zM397 -10q-73 0 -133.5 22.5t-104 68t-67 115t-23.5 163.5q0 93 25 161.5t69 114t104.5 68t132.5 22.5q74 0 134.5 -21.5t103.5 -66t66.5 -113.5t23.5 -164q0 -96 -25 -165.5t-69.5 -115t-105 -67.5t-131.5 -22zM398 48q111 0 174.5 74.5
t63.5 237.5q0 161 -63.5 234t-174.5 73q-54 0 -98 -18t-75 -56t-48 -96t-17 -138q0 -81 17 -140t48 -97t75 -56t98 -18z" />
    <glyph glyph-name="omacron" unicode="&#x14d;" horiz-adv-x="585" 
d="M144 659h299l4 -58h-308zM295 -11q-50 0 -92.5 15t-73 46.5t-48 79.5t-17.5 113q0 64 17 111.5t48 79t73 47t93 15.5t92.5 -14.5t71 -45.5t46 -79t16.5 -114t-16.5 -113.5t-46.5 -79t-71.5 -46.5t-91.5 -15zM293 44q69 0 106 46.5t37 152.5q0 105 -37 151.5t-106 46.5
t-106.5 -47t-37.5 -151q0 -106 37.5 -152.5t106.5 -46.5z" />
    <glyph glyph-name="Ohungarumlaut" unicode="&#x150;" horiz-adv-x="797" 
d="M377 900h89l-96 -143h-57zM528 900h94l-126 -143h-57zM397 -10q-73 0 -133.5 22.5t-104 68t-67 115t-23.5 163.5q0 93 25 161.5t69 114t104.5 68t132.5 22.5q74 0 134.5 -21.5t103.5 -66t66.5 -113.5t23.5 -164q0 -96 -25 -165.5t-69.5 -115t-105 -67.5t-131.5 -22z
M398 48q111 0 174.5 74.5t63.5 237.5q0 161 -63.5 234t-174.5 73q-54 0 -98 -18t-75 -56t-48 -96t-17 -138q0 -81 17 -140t48 -97t75 -56t98 -18z" />
    <glyph glyph-name="ohungarumlaut" unicode="&#x151;" horiz-adv-x="585" 
d="M271 705h89l-96 -143h-57zM422 705h94l-126 -143h-57zM295 -11q-50 0 -92.5 15t-73 46.5t-48 79.5t-17.5 113q0 64 17 111.5t48 79t73 47t93 15.5t92.5 -14.5t71 -45.5t46 -79t16.5 -114t-16.5 -113.5t-46.5 -79t-71.5 -46.5t-91.5 -15zM293 44q69 0 106 46.5t37 152.5
q0 105 -37 151.5t-106 46.5t-106.5 -47t-37.5 -151q0 -106 37.5 -152.5t106.5 -46.5z" />
    <glyph glyph-name="OE" unicode="&#x152;" horiz-adv-x="1022" 
d="M427 0q-72 0 -134 20t-107.5 63t-71.5 110.5t-26 161.5q0 95 27 163t74 111.5t110 64.5t135 21h520l6 -62h-347v-259h302v-55h-302v-277h351l-7 -62h-530zM526 57v601h-87q-58 0 -105 -17t-81 -54t-52.5 -93.5t-18.5 -136.5q0 -79 18 -135.5t51.5 -93t80.5 -54t104 -17.5
h90z" />
    <glyph glyph-name="oe" unicode="&#x153;" horiz-adv-x="910" 
d="M529 241q2 -94 46.5 -138t128.5 -44q34 0 61 5.5t46 11.5q23 7 40 17l-11 -58q-16 -12 -39 -22q-21 -9 -50 -15.5t-69 -6.5q-66 0 -117.5 23.5t-81.5 74.5q-29 -51 -77 -75.5t-111 -24.5q-50 0 -92.5 15t-73 46.5t-48 79.5t-17.5 113q0 64 17 111.5t48 79t73 47t93 15.5
q63 0 111.5 -23.5t77.5 -74.5q28 48 73.5 72t105.5 24q88 0 138.5 -50t50.5 -156q0 -9 -0.5 -17.5t-0.5 -14.5q0 -8 -1 -15h-321zM296 44q68 0 106 46.5t38 152.5q0 105 -38 151.5t-106 46.5q-69 0 -108 -47t-39 -151q0 -106 39 -152.5t108 -46.5zM658 440
q-60 0 -90.5 -38.5t-37.5 -108.5h247q0 147 -119 147z" />
    <glyph glyph-name="Racute" unicode="&#x154;" horiz-adv-x="634" 
d="M337 757h-66l104 143h103zM291 334h-117v-334h-86v715h279q43 0 80.5 -11.5t65 -35t43.5 -58t16 -80.5q0 -42 -14.5 -75.5t-39.5 -57.5t-58.5 -39t-72.5 -20l208 -338h-101zM174 390h172q29 0 54.5 9.5t44 27.5t29 43t10.5 56q0 64 -34.5 98.5t-103.5 34.5h-172v-269z
" />
    <glyph glyph-name="racute" unicode="&#x155;" horiz-adv-x="400" 
d="M241 562h-66l104 143h103zM328 496q10 0 21 -1q5 -1 9 -2l8 -88q-6 2 -13 3q-8 1 -17 2t-21 1q-31 0 -58.5 -13t-48 -38t-32.5 -61t-12 -81v-218h-81v486h78v-119q26 59 70.5 94t96.5 35z" />
    <glyph glyph-name="Rcommaaccent" unicode="&#x156;" horiz-adv-x="634" 
d="M595 0h-101l-203 334h-117v-334h-86v715h279q43 0 80.5 -11.5t65 -35t43.5 -58t16 -80.5q0 -42 -14.5 -75.5t-39.5 -57.5t-58.5 -39t-72.5 -20zM174 390h172q29 0 54.5 9.5t44 27.5t29 43t10.5 56q0 64 -34.5 98.5t-103.5 34.5h-172v-269zM286 -68h90l-58 -166h-58z" />
    <glyph glyph-name="rcommaaccent" unicode="&#x157;" horiz-adv-x="400" 
d="M366 405q-6 2 -13 3q-8 1 -17 2t-21 1q-31 0 -58.5 -13t-48 -38t-32.5 -61t-12 -81v-218h-81v486h78v-119q26 59 70.5 94t96.5 35q10 0 21 -1q5 -1 9 -2zM81 -68h90l-58 -166h-58z" />
    <glyph glyph-name="Rcaron" unicode="&#x158;" horiz-adv-x="634" 
d="M291 751l-140 125l31 22l137 -79l135 79l33 -22l-140 -125h-56zM291 334h-117v-334h-86v715h279q43 0 80.5 -11.5t65 -35t43.5 -58t16 -80.5q0 -42 -14.5 -75.5t-39.5 -57.5t-58.5 -39t-72.5 -20l208 -338h-101zM174 390h172q29 0 54.5 9.5t44 27.5t29 43t10.5 56
q0 64 -34.5 98.5t-103.5 34.5h-172v-269z" />
    <glyph glyph-name="rcaron" unicode="&#x159;" horiz-adv-x="400" 
d="M195 556l-140 125l31 22l137 -79l135 79l33 -22l-140 -125h-56zM328 496q10 0 21 -1q5 -1 9 -2l8 -88q-6 2 -13 3q-8 1 -17 2t-21 1q-31 0 -58.5 -13t-48 -38t-32.5 -61t-12 -81v-218h-81v486h78v-119q26 59 70.5 94t96.5 35z" />
    <glyph glyph-name="Sacute" unicode="&#x15a;" horiz-adv-x="613" 
d="M367 900h103l-141 -143h-66zM305 -9q-57 0 -100 10t-73 23q-35 14 -61 32l-7 95q29 -27 67 -48q34 -20 77 -34t98 -14q81 0 119.5 31.5t38.5 87.5q0 28 -10 48t-28.5 35.5t-45.5 27.5t-61 24l-75 27q-38 14 -70 30.5t-55 39.5t-35.5 53.5t-12.5 71.5q0 42 15 77.5
t44.5 61.5t73 40.5t101.5 14.5q57 0 97.5 -9.5t67.5 -21.5q32 -14 53 -31l12 -102q-26 28 -60 50q-32 20 -74 35t-97 15q-75 0 -111 -32.5t-36 -87.5q0 -50 32.5 -77t86.5 -47l76 -26q43 -15 79 -31.5t62.5 -40t41.5 -55t15 -76.5q0 -43 -17 -79.5t-48.5 -62.5t-77 -40.5
t-102.5 -14.5z" />
    <glyph glyph-name="sacute" unicode="&#x15b;" horiz-adv-x="493" 
d="M306 705h103l-141 -143h-66zM244 -9q-42 0 -74 7t-53 16q-26 10 -44 23l-9 82q23 -20 51 -36q25 -15 57 -26t70 -11q55 0 80 20t25 54q0 32 -22.5 48.5t-62.5 28.5l-56 18q-31 9 -57 20.5t-44 27t-28 37.5t-10 53q0 62 44 101.5t135 39.5q40 0 70 -5.5t50 -12.5
q24 -8 41 -18l10 -81q-21 17 -47 31q-25 13 -55 22t-68 9q-52 0 -75 -21t-23 -55q0 -32 22.5 -48t60.5 -28l59 -19q30 -9 55.5 -20.5t44 -27t28.5 -37.5t10 -52q0 -62 -46.5 -101t-138.5 -39z" />
    <glyph glyph-name="Scedilla" unicode="&#x15e;" horiz-adv-x="613" 
d="M550 188q0 -84 -59 -138t-165 -59l-27 -43l22 -5q14 -3 28.5 -6.5t26.5 -11t20 -20t8 -32.5q0 -35 -29 -56.5t-82 -21.5q-24 0 -41.5 3t-28.5 7q-14 4 -23 10l-5 52q12 -10 27 -17q13 -7 30 -12t39 -5q26 0 39 10.5t13 27.5q0 21 -19.5 29t-40.5 14l-40 11l40 66
q-52 2 -91 12.5t-66 22.5q-32 13 -55 30l-7 95q29 -27 67 -48q34 -20 77 -34t98 -14q81 0 119.5 31.5t38.5 87.5q0 28 -10 48t-28.5 35.5t-45.5 27.5t-61 24l-75 27q-38 14 -70 30.5t-55 39.5t-35.5 53.5t-12.5 71.5q0 42 15 77.5t44.5 61.5t73 40.5t101.5 14.5
q57 0 97.5 -9.5t67.5 -21.5q32 -14 53 -31l12 -102q-26 28 -60 50q-32 20 -74 35t-97 15q-75 0 -111 -32.5t-36 -87.5q0 -50 32.5 -77t86.5 -47l76 -26q43 -15 79 -31.5t62.5 -40t41.5 -55t15 -76.5z" />
    <glyph glyph-name="scedilla" unicode="&#x15f;" horiz-adv-x="493" 
d="M429 131q0 -59 -42 -97t-125 -43l-26 -43l22 -5q14 -3 28.5 -6.5t26.5 -11t20 -20t8 -32.5q0 -35 -29 -56.5t-82 -21.5q-24 0 -41.5 3t-28.5 7q-14 4 -23 10l-5 52q12 -10 27 -17q13 -7 30 -12t39 -5q26 0 39 10.5t13 27.5q0 21 -19.5 29t-40.5 14l-40 11l40 67
q-36 2 -63.5 9t-45.5 15q-22 10 -38 21l-9 82q23 -20 51 -36q25 -15 57 -26t70 -11q55 0 80 20t25 54q0 32 -22.5 48.5t-62.5 28.5l-56 18q-31 9 -57 20.5t-44 27t-28 37.5t-10 53q0 62 44 101.5t135 39.5q40 0 70 -5.5t50 -12.5q24 -8 41 -18l10 -81q-21 17 -47 31
q-25 13 -55 22t-68 9q-52 0 -75 -21t-23 -55q0 -32 22.5 -48t60.5 -28l59 -19q30 -9 55.5 -20.5t44 -27t28.5 -37.5t10 -52z" />
    <glyph glyph-name="Scaron" unicode="&#x160;" horiz-adv-x="613" 
d="M143 876l31 22l137 -79l135 79l33 -22l-140 -125h-56zM305 -9q-57 0 -100 10t-73 23q-35 14 -61 32l-7 95q29 -27 67 -48q34 -20 77 -34t98 -14q81 0 119.5 31.5t38.5 87.5q0 28 -10 48t-28.5 35.5t-45.5 27.5t-61 24l-75 27q-38 14 -70 30.5t-55 39.5t-35.5 53.5
t-12.5 71.5q0 42 15 77.5t44.5 61.5t73 40.5t101.5 14.5q57 0 97.5 -9.5t67.5 -21.5q32 -14 53 -31l12 -102q-26 28 -60 50q-32 20 -74 35t-97 15q-75 0 -111 -32.5t-36 -87.5q0 -50 32.5 -77t86.5 -47l76 -26q43 -15 79 -31.5t62.5 -40t41.5 -55t15 -76.5q0 -43 -17 -79.5
t-48.5 -62.5t-77 -40.5t-102.5 -14.5z" />
    <glyph glyph-name="scaron" unicode="&#x161;" horiz-adv-x="493" 
d="M82 681l31 22l137 -79l135 79l33 -22l-140 -125h-56zM244 -9q-42 0 -74 7t-53 16q-26 10 -44 23l-9 82q23 -20 51 -36q25 -15 57 -26t70 -11q55 0 80 20t25 54q0 32 -22.5 48.5t-62.5 28.5l-56 18q-31 9 -57 20.5t-44 27t-28 37.5t-10 53q0 62 44 101.5t135 39.5
q40 0 70 -5.5t50 -12.5q24 -8 41 -18l10 -81q-21 17 -47 31q-25 13 -55 22t-68 9q-52 0 -75 -21t-23 -55q0 -32 22.5 -48t60.5 -28l59 -19q30 -9 55.5 -20.5t44 -27t28.5 -37.5t10 -52q0 -62 -46.5 -101t-138.5 -39z" />
    <glyph glyph-name="uni0162" unicode="&#x162;" horiz-adv-x="636" 
d="M331 -57q14 -3 28.5 -6.5t26.5 -11t20 -20t8 -32.5q0 -35 -29 -56.5t-82 -21.5q-24 0 -41.5 3t-28.5 7q-14 4 -23 10l-5 52q12 -10 27 -17q13 -7 30 -12t39 -5q26 0 39 10.5t13 27.5q0 21 -19.5 29t-40.5 14l-40 11l45 75h-24v652h-225l4 63h529l5 -63h-226v-652h-20
l-32 -52z" />
    <glyph glyph-name="uni0163" unicode="&#x163;" horiz-adv-x="403" 
d="M356 23q-10 -9 -25 -16q-13 -6 -31 -11t-42 -6l-26 -42l22 -5q14 -3 28.5 -6.5t26.5 -11t20 -20t8 -32.5q0 -35 -29 -56.5t-82 -21.5q-24 0 -41.5 3t-28.5 7q-14 4 -23 10l-5 52q12 -10 27 -17q13 -7 30 -12t39 -5q26 0 39 10.5t13 27.5q0 21 -19.5 29t-40.5 14l-40 11
l40 68q-48 8 -75 40t-27 94v307h-84v53h84v144h81v-144h155l5 -53h-160v-296q0 -45 19.5 -64.5t61.5 -19.5q19 0 35 4t27 9q14 6 25 13z" />
    <glyph glyph-name="Tcaron" unicode="&#x164;" horiz-adv-x="636" 
d="M290 751l-140 125l31 22l137 -79l135 79l33 -22l-140 -125h-56zM361 652v-652h-87v652h-225l4 63h529l5 -63h-226z" />
    <glyph glyph-name="tcaron" unicode="&#x165;" horiz-adv-x="403" 
d="M319 560h-57l25 165h89zM195 138q0 -45 19.5 -64.5t61.5 -19.5q19 0 35 4t27 9q14 6 25 13l-7 -57q-11 -9 -27 -16q-14 -7 -33 -12t-45 -5q-65 0 -101 32.5t-36 104.5v307h-84v53h84v144h81v-144h155l5 -53h-160v-296z" />
    <glyph glyph-name="Tbar" unicode="&#x166;" horiz-adv-x="623" 
d="M361 394h161v-58h-161v-336h-87v336h-161v58h161v258h-225l4 63h529l5 -63h-226v-258z" />
    <glyph glyph-name="tbar" unicode="&#x167;" horiz-adv-x="403" 
d="M276 54q19 0 35 4t27 9q14 6 25 13l-7 -57q-11 -9 -27 -16q-14 -7 -33 -12t-45 -5q-65 0 -101 32.5t-36 104.5v136h-84v51h84v120h-84v53h84v144h81v-144h155l5 -53h-160v-120h156l4 -51h-160v-125q0 -45 19.5 -64.5t61.5 -19.5z" />
    <glyph glyph-name="Umacron" unicode="&#x16a;" horiz-adv-x="699" 
d="M208 854h299l4 -58h-308zM347 -10q-59 0 -107.5 15t-83.5 45.5t-54 77t-19 109.5v478h87v-472q0 -97 52 -142.5t139 -45.5q86 0 135 45.5t49 143.5v471h71v-470q0 -63 -19 -111t-54.5 -80t-85 -48t-110.5 -16z" />
    <glyph glyph-name="umacron" unicode="&#x16b;" horiz-adv-x="562" 
d="M435 601h-308l5 58h299zM479 487v-487h-76v85q-27 -44 -72 -69.5t-105 -25.5q-77 0 -112.5 41t-35.5 113v343h81v-334q0 -45 19.5 -72t69.5 -27q30 0 57.5 11.5t48 32.5t32.5 50.5t12 66.5v272h81z" />
    <glyph glyph-name="Uring" unicode="&#x16e;" horiz-adv-x="699" 
d="M359 737q-43 0 -70.5 25.5t-27.5 67.5t27.5 68t70.5 26q42 0 68.5 -26t26.5 -68t-26.5 -67.5t-68.5 -25.5zM359 782q20 0 33.5 13t13.5 35q0 23 -13.5 36t-33.5 13q-22 0 -35.5 -13t-13.5 -36q0 -22 13.5 -35t35.5 -13zM347 -10q-59 0 -107.5 15t-83.5 45.5t-54 77
t-19 109.5v478h87v-472q0 -97 52 -142.5t139 -45.5q86 0 135 45.5t49 143.5v471h71v-470q0 -63 -19 -111t-54.5 -80t-85 -48t-110.5 -16z" />
    <glyph glyph-name="uring" unicode="&#x16f;" horiz-adv-x="562" 
d="M283 542q-43 0 -70.5 25.5t-27.5 67.5t27.5 68t70.5 26q42 0 68.5 -26t26.5 -68t-26.5 -67.5t-68.5 -25.5zM283 684q-22 0 -35.5 -13t-13.5 -36q0 -22 13.5 -35t35.5 -13q20 0 33.5 13t13.5 35q0 23 -13.5 36t-33.5 13zM479 487v-487h-76v85q-27 -44 -72 -69.5
t-105 -25.5q-77 0 -112.5 41t-35.5 113v343h81v-334q0 -45 19.5 -72t69.5 -27q30 0 57.5 11.5t48 32.5t32.5 50.5t12 66.5v272h81z" />
    <glyph glyph-name="Uhungarumlaut" unicode="&#x170;" horiz-adv-x="699" 
d="M335 900h89l-96 -143h-57zM486 900h94l-126 -143h-57zM347 -10q-59 0 -107.5 15t-83.5 45.5t-54 77t-19 109.5v478h87v-472q0 -97 52 -142.5t139 -45.5q86 0 135 45.5t49 143.5v471h71v-470q0 -63 -19 -111t-54.5 -80t-85 -48t-110.5 -16z" />
    <glyph glyph-name="uhungarumlaut" unicode="&#x171;" horiz-adv-x="562" 
d="M252 562h-57l64 143h89zM321 562l89 143h94l-126 -143h-57zM398 487h81v-487h-76v85q-27 -44 -72 -69.5t-105 -25.5q-77 0 -112.5 41t-35.5 113v343h81v-334q0 -45 19.5 -72t69.5 -27q30 0 57.5 11.5t48 32.5t32.5 50.5t12 66.5v272z" />
    <glyph glyph-name="Uogonek" unicode="&#x172;" horiz-adv-x="699" 
d="M485 16q-37 -20 -58.5 -41.5t-21.5 -52.5q0 -26 13.5 -40t43.5 -14q21 0 37.5 3.5t27.5 8.5q13 5 23 12l-7 -48q-10 -6 -23 -10t-30 -7t-41 -3q-56 0 -85 24t-29 63q0 24 11 44t29 36q-7 -1 -13.5 -1h-14.5q-59 0 -107.5 15t-83.5 45.5t-54 77t-19 109.5v478h87v-472
q0 -97 52 -142.5t139 -45.5q86 0 135 45.5t49 143.5v471h71v-470q0 -87 -34.5 -143.5t-96.5 -85.5z" />
    <glyph glyph-name="uogonek" unicode="&#x173;" horiz-adv-x="562" 
d="M418 -159q21 0 37.5 3.5t27.5 8.5q13 5 23 12l-7 -48q-10 -6 -23 -10t-30 -7t-41 -3q-56 0 -85 24t-29 63q0 22 9.5 41.5t26 34.5t38 25t45.5 15h-7v85q-27 -44 -72 -69.5t-105 -25.5q-77 0 -112.5 41t-35.5 113v343h81v-334q0 -45 19.5 -72t69.5 -27q30 0 57.5 11.5
t48 32.5t32.5 50.5t12 66.5v272h81v-487h-18q-45 -23 -72.5 -46.5t-27.5 -58.5q0 -26 13.5 -40t43.5 -14z" />
    <glyph glyph-name="Wcircumflex" unicode="&#x174;" horiz-adv-x="975" 
d="M357 751l-32 22l140 124h56l140 -124l-32 -22l-136 79zM936 715l-197 -715h-85l-172 569l-176 -569h-84l-183 715h96l142 -607l189 607h57l186 -610l148 610h79z" />
    <glyph glyph-name="wcircumflex" unicode="&#x175;" horiz-adv-x="764" 
d="M254 556l-32 22l140 124h56l140 -124l-32 -22l-136 79zM730 487l-156 -487h-77l-118 359l-124 -359h-74l-147 487h90l107 -393l133 393h54l129 -393l110 393h73z" />
    <glyph glyph-name="Ycircumflex" unicode="&#x176;" horiz-adv-x="674" 
d="M207 751l-32 22l140 124h56l140 -124l-32 -22l-136 79zM635 715l-256 -385v-330h-86v327l-254 388h107l204 -324l201 324h84z" />
    <glyph glyph-name="ycircumflex" unicode="&#x177;" horiz-adv-x="518" 
d="M129 556l-32 22l140 124h56l140 -124l-32 -22l-136 79zM484 487l-209 -539q-32 -81 -71.5 -114.5t-96.5 -33.5q-12 0 -22.5 1.5t-17.5 3.5q-10 3 -17 6l-9 70q8 -3 18 -6q9 -2 21 -3.5t27 -1.5q25 0 43 9t33 27t27.5 44t25.5 61l-202 476h92l152 -377l134 377h72z" />
    <glyph glyph-name="Ydieresis" unicode="&#x178;" horiz-adv-x="674" 
d="M304 789h-79v111h79v-111zM458 789h-78v111h78v-111zM635 715l-256 -385v-330h-86v327l-254 388h107l204 -324l201 324h84z" />
    <glyph glyph-name="Zacute" unicode="&#x179;" horiz-adv-x="635" 
d="M337 757h-66l104 143h103zM582 59l-7 -59h-516v59l402 597h-400l4 59h493v-59l-399 -597h423z" />
    <glyph glyph-name="zacute" unicode="&#x17a;" horiz-adv-x="508" 
d="M276 562h-66l104 143h103zM460 53l-6 -53h-400v51l286 383h-281l5 53h376v-51l-285 -383h305z" />
    <glyph glyph-name="Zdotaccent" unicode="&#x17b;" horiz-adv-x="635" 
d="M360 789h-82v111h82v-111zM582 59l-7 -59h-516v59l402 597h-400l4 59h493v-59l-399 -597h423z" />
    <glyph glyph-name="zdotaccent" unicode="&#x17c;" horiz-adv-x="508" 
d="M299 594h-82v111h82v-111zM460 53l-6 -53h-400v51l286 383h-281l5 53h376v-51l-285 -383h305z" />
    <glyph glyph-name="Zcaron" unicode="&#x17d;" horiz-adv-x="635" 
d="M291 751l-140 125l31 22l137 -79l135 79l33 -22l-140 -125h-56zM582 59l-7 -59h-516v59l402 597h-400l4 59h493v-59l-399 -597h423z" />
    <glyph glyph-name="zcaron" unicode="&#x17e;" horiz-adv-x="508" 
d="M230 556l-140 125l31 22l137 -79l135 79l33 -22l-140 -125h-56zM460 53l-6 -53h-400v51l286 383h-281l5 53h376v-51l-285 -383h305z" />
    <glyph glyph-name="florin" unicode="&#x192;" horiz-adv-x="488" 
d="M419 435h-146l-43 -467q-8 -81 -48.5 -125.5t-112.5 -44.5q-20 0 -35 4t-26 9q-12 6 -21 13l-6 63q10 -8 22 -14q11 -6 25 -10t32 -4q40 0 63 22.5t30 90.5l44 463h-97v51h102l6 69q8 81 48 125.5t112 44.5q21 0 36.5 -4t25.5 -9q12 -6 21 -13l7 -63q-10 8 -22 14
q-11 6 -26 10t-33 4q-39 0 -62.5 -22.5t-30.5 -90.5l-6 -65h137z" />
    <glyph glyph-name="Scommaaccent" unicode="&#x218;" horiz-adv-x="613" 
d="M305 -9q-57 0 -100 10t-73 23q-35 14 -61 32l-7 95q29 -27 67 -48q34 -20 77 -34t98 -14q81 0 119.5 31.5t38.5 87.5q0 28 -10 48t-28.5 35.5t-45.5 27.5t-61 24l-75 27q-38 14 -70 30.5t-55 39.5t-35.5 53.5t-12.5 71.5q0 42 15 77.5t44.5 61.5t73 40.5t101.5 14.5
q57 0 97.5 -9.5t67.5 -21.5q32 -14 53 -31l12 -102q-26 28 -60 50q-32 20 -74 35t-97 15q-75 0 -111 -32.5t-36 -87.5q0 -50 32.5 -77t86.5 -47l76 -26q43 -15 79 -31.5t62.5 -40t41.5 -55t15 -76.5q0 -43 -17 -79.5t-48.5 -62.5t-77 -40.5t-102.5 -14.5zM267 -68h90
l-58 -166h-58z" />
    <glyph glyph-name="scommaaccent" unicode="&#x219;" horiz-adv-x="493" 
d="M244 -9q-42 0 -74 7t-53 16q-26 10 -44 23l-9 82q23 -20 51 -36q25 -15 57 -26t70 -11q55 0 80 20t25 54q0 32 -22.5 48.5t-62.5 28.5l-56 18q-31 9 -57 20.5t-44 27t-28 37.5t-10 53q0 62 44 101.5t135 39.5q40 0 70 -5.5t50 -12.5q24 -8 41 -18l10 -81q-21 17 -47 31
q-25 13 -55 22t-68 9q-52 0 -75 -21t-23 -55q0 -32 22.5 -48t60.5 -28l59 -19q30 -9 55.5 -20.5t44 -27t28.5 -37.5t10 -52q0 -62 -46.5 -101t-138.5 -39zM204 -68h90l-58 -166h-58z" />
    <glyph glyph-name="uni021A" unicode="&#x21a;" horiz-adv-x="636" 
d="M274 652h-225l4 63h529l5 -63h-226v-652h-87v652zM277 -68h90l-58 -166h-58z" />
    <glyph glyph-name="uni021B" unicode="&#x21b;" horiz-adv-x="403" 
d="M276 54q19 0 35 4t27 9q14 6 25 13l-7 -57q-11 -9 -27 -16q-14 -7 -33 -12t-45 -5q-65 0 -101 32.5t-36 104.5v307h-84v53h84v144h81v-144h155l5 -53h-160v-296q0 -45 19.5 -64.5t61.5 -19.5zM200 -68h90l-58 -166h-58z" />
    <glyph glyph-name="circumflex" unicode="&#x2c6;" horiz-adv-x="520" 
d="M92 578l140 124h56l140 -124l-32 -22l-136 79l-136 -79z" />
    <glyph glyph-name="caron" unicode="&#x2c7;" horiz-adv-x="520" 
d="M92 681l31 22l137 -79l135 79l33 -22l-140 -125h-56z" />
    <glyph glyph-name="breve" unicode="&#x2d8;" horiz-adv-x="520" 
d="M260 562q-41 0 -70 13t-48 30q-23 18 -38 42l-6 51q18 -19 42 -33q22 -14 51 -24t69 -10t69.5 10.5t50.5 23.5q24 14 41 33l-5 -51q-15 -24 -38 -42q-20 -18 -49 -30.5t-69 -12.5z" />
    <glyph glyph-name="dotaccent" unicode="&#x2d9;" horiz-adv-x="520" 
d="M219 705h82v-111h-82v111z" />
    <glyph glyph-name="ring" unicode="&#x2da;" horiz-adv-x="520" 
d="M261 542q-43 0 -70.5 25.5t-27.5 67.5t27.5 68t70.5 26q42 0 68.5 -26t26.5 -68t-26.5 -67.5t-68.5 -25.5zM261 587q20 0 33.5 13t13.5 35q0 23 -13.5 36t-33.5 13q-22 0 -35.5 -13t-13.5 -36q0 -22 13.5 -35t35.5 -13z" />
    <glyph glyph-name="ogonek" unicode="&#x2db;" horiz-adv-x="520" 
d="M255 -203q-56 0 -85 24t-29 63q0 23 10.5 42.5t27.5 35t39.5 25.5t47.5 14l20 3l25 -4q-45 -23 -72.5 -46.5t-27.5 -58.5q0 -26 13.5 -40t43.5 -14q21 0 37.5 3.5t27.5 8.5q13 5 23 12l-7 -48q-10 -6 -23 -10t-30 -7t-41 -3z" />
    <glyph glyph-name="tilde" unicode="&#x2dc;" horiz-adv-x="520" 
d="M331 564q-28 0 -47.5 10.5t-37 23t-34.5 23t-39 10.5q-19 0 -35 -9t-27.5 -19.5t-18 -20t-6.5 -10.5l7 56q10 18 25 33q13 13 30 22.5t40 9.5q28 0 48.5 -10.5t37.5 -23t34 -23t38 -10.5q20 0 36 9t27 19.5t17.5 19.5t7.5 10l-7 -56q-10 -18 -25 -32q-13 -13 -30.5 -22.5
t-40.5 -9.5z" />
    <glyph glyph-name="hungarumlaut" unicode="&#x2dd;" horiz-adv-x="520" 
d="M237 705h89l-96 -143h-57zM388 705h94l-126 -143h-57z" />
    <glyph glyph-name="gravecomb" unicode="&#x300;" horiz-adv-x="0" 
d="M-405 705h105l106 -143h-67z" />
    <glyph glyph-name="acutecomb" unicode="&#x301;" horiz-adv-x="0" 
d="M-224 705h103l-141 -143h-66z" />
    <glyph glyph-name="uni0302" unicode="&#x302;" horiz-adv-x="0" 
d="M-428 578l140 124h56l140 -124l-32 -22l-136 79l-136 -79z" />
    <glyph glyph-name="tildecomb" unicode="&#x303;" horiz-adv-x="0" 
d="M-189 564q-28 0 -47.5 10.5t-37 23t-34.5 23t-39 10.5q-20 0 -35.5 -9t-27 -19.5t-18 -20t-6.5 -10.5l7 56q10 18 25 33q13 13 30 22.5t40 9.5q28 0 48 -10.5t37.5 -23t34.5 -23t38 -10.5q20 0 36 9t27 19.5t17.5 19.5t7.5 10l-7 -56q-10 -18 -25 -32
q-13 -13 -30.5 -22.5t-40.5 -9.5z" />
    <glyph glyph-name="uni0304" unicode="&#x304;" horiz-adv-x="0" 
d="M-410 659h299l4 -58h-308z" />
    <glyph glyph-name="uni0306" unicode="&#x306;" horiz-adv-x="0" 
d="M-260 562q-41 0 -70 13t-49 30q-22 18 -37 42l-6 51q18 -19 42 -33q22 -14 51 -24t69 -10t69.5 10.5t50.5 23.5q24 14 41 33l-5 -51q-15 -24 -38 -42q-20 -18 -49 -30.5t-69 -12.5z" />
    <glyph glyph-name="uni0307" unicode="&#x307;" horiz-adv-x="0" 
d="M-301 705h82v-111h-82v111z" />
    <glyph glyph-name="uni0308" unicode="&#x308;" horiz-adv-x="0" 
d="M-378 705h79v-111h-79v111zM-223 705h78v-111h-78v111z" />
    <glyph glyph-name="uni030A" unicode="&#x30a;" horiz-adv-x="0" 
d="M-259 542q-43 0 -70.5 25.5t-27.5 67.5t27.5 68t70.5 26q42 0 68.5 -26t26.5 -68t-26.5 -67.5t-68.5 -25.5zM-259 587q20 0 33.5 13t13.5 35q0 23 -13.5 36t-33.5 13q-22 0 -35.5 -13t-13.5 -36q0 -22 13.5 -35t35.5 -13z" />
    <glyph glyph-name="uni030B" unicode="&#x30b;" horiz-adv-x="0" 
d="M-283 705h89l-96 -143h-57zM-132 705h94l-126 -143h-57z" />
    <glyph glyph-name="uni030C" unicode="&#x30c;" horiz-adv-x="0" 
d="M-428 681l31 22l137 -79l135 79l33 -22l-140 -125h-56z" />
    <glyph glyph-name="uni0326" unicode="&#x326;" horiz-adv-x="0" 
d="M-302 -68h90l-58 -166h-58z" />
    <glyph glyph-name="uni0327" unicode="&#x327;" horiz-adv-x="0" 
d="M-276 -205q-24 0 -41.5 3t-28.5 7q-14 4 -23 10l-5 52q12 -10 27 -17q13 -7 30 -12t39 -5q26 0 39 10.5t13 27.5q0 21 -19.5 29t-40.5 14l-40 11l49 82h43l-36 -59l22 -5q14 -3 28.5 -6.5t26.5 -11t20 -20t8 -32.5q0 -35 -29 -56.5t-82 -21.5z" />
    <glyph glyph-name="uni0328" unicode="&#x328;" horiz-adv-x="0" 
d="M-265 -203q-56 0 -85 24t-29 63q0 23 10 42.5t27.5 35t40 25.5t47.5 14l20 3l25 -4q-45 -23 -72.5 -46.5t-27.5 -58.5q0 -26 13.5 -40t43.5 -14q21 0 37.5 3.5t27.5 8.5q13 5 23 12l-7 -48q-10 -6 -23 -10t-30 -7t-41 -3z" />
    <glyph glyph-name="uni0394" unicode="&#x394;" horiz-adv-x="611" 
d="M268 715h73l236 -715h-543zM479 54l-180 562l-179 -562h359z" />
    <glyph glyph-name="uni03A9" unicode="&#x3a9;" horiz-adv-x="789" 
d="M62 57h153q-15 13 -40.5 38.5t-49.5 64t-42 89.5t-18 116q0 88 25 155.5t69.5 113t105 68.5t131.5 23q72 0 132.5 -22t104 -67t67.5 -112.5t24 -158.5q0 -64 -18.5 -115t-44 -89.5t-51 -64.5t-40.5 -39h157l-6 -57h-294q24 14 59 42t67.5 72.5t55.5 106t23 142.5
q0 153 -63.5 227t-172.5 74t-174 -74.5t-65 -226.5q0 -81 23 -142.5t55.5 -106t67.5 -72.5t59 -42h-293z" />
    <glyph glyph-name="uni03BC" unicode="&#x3bc;" horiz-adv-x="562" 
d="M479 486v-486h-75v85q-27 -43 -72.5 -69t-105.5 -26q-39 0 -68 12v-194h-80v385v293h80v-331q0 -45 19.5 -72t70.5 -27q30 0 57.5 11t48.5 31.5t33 50t12 66.5v271h80z" />
    <glyph glyph-name="pi" unicode="&#x3c0;" horiz-adv-x="697" 
d="M531 -10q-65 0 -101 32.5t-36 104.5v308h-168v-435h-78v436h-99v50h581l4 -51h-161v-297q0 -45 19.5 -64.5t61.5 -19.5q19 0 35 4t28 9q14 6 26 13l-7 -57q-11 -9 -27 -16q-14 -7 -33 -12t-45 -5z" />
    <glyph glyph-name="Wgrave" unicode="&#x1e80;" horiz-adv-x="975" 
d="M492 757l-144 143h105l106 -143h-67zM936 715l-197 -715h-85l-172 569l-176 -569h-84l-183 715h96l142 -607l189 607h57l186 -610l148 610h79z" />
    <glyph glyph-name="wgrave" unicode="&#x1e81;" horiz-adv-x="764" 
d="M389 562l-144 143h105l106 -143h-67zM730 487l-156 -487h-77l-118 359l-124 -359h-74l-147 487h90l107 -393l133 393h54l129 -393l110 393h73z" />
    <glyph glyph-name="Wacute" unicode="&#x1e82;" horiz-adv-x="975" 
d="M511 757h-66l104 143h103zM936 715l-197 -715h-85l-172 569l-176 -569h-84l-183 715h96l142 -607l189 607h57l186 -610l148 610h79z" />
    <glyph glyph-name="wacute" unicode="&#x1e83;" horiz-adv-x="764" 
d="M408 562h-66l104 143h103zM730 487l-156 -487h-77l-118 359l-124 -359h-74l-147 487h90l107 -393l133 393h54l129 -393l110 393h73z" />
    <glyph glyph-name="Wdieresis" unicode="&#x1e84;" horiz-adv-x="975" 
d="M454 789h-79v111h79v-111zM608 789h-78v111h78v-111zM936 715l-197 -715h-85l-172 569l-176 -569h-84l-183 715h96l142 -607l189 607h57l186 -610l148 610h79z" />
    <glyph glyph-name="wdieresis" unicode="&#x1e85;" horiz-adv-x="764" 
d="M351 594h-79v111h79v-111zM505 594h-78v111h78v-111zM730 487l-156 -487h-77l-118 359l-124 -359h-74l-147 487h90l107 -393l133 393h54l129 -393l110 393h73z" />
    <glyph glyph-name="Ygrave" unicode="&#x1ef2;" horiz-adv-x="674" 
d="M342 757l-144 143h105l106 -143h-67zM635 715l-256 -385v-330h-86v327l-254 388h107l204 -324l201 324h84z" />
    <glyph glyph-name="ygrave" unicode="&#x1ef3;" horiz-adv-x="518" 
d="M264 562l-144 143h105l106 -143h-67zM484 487l-209 -539q-32 -81 -71.5 -114.5t-96.5 -33.5q-12 0 -22.5 1.5t-17.5 3.5q-10 3 -17 6l-9 70q8 -3 18 -6q9 -2 21 -3.5t27 -1.5q25 0 43 9t33 27t27.5 44t25.5 61l-202 476h92l152 -377l134 377h72z" />
    <glyph glyph-name="endash" unicode="&#x2013;" 
d="M89 298h433v-59h-433v59z" />
    <glyph glyph-name="emdash" unicode="&#x2014;" horiz-adv-x="832" 
d="M69 298h694v-59h-694v59z" />
    <glyph glyph-name="quoteleft" unicode="&#x2018;" horiz-adv-x="251" 
d="M136 715h59l-50 -217h-91z" />
    <glyph glyph-name="quoteright" unicode="&#x2019;" horiz-adv-x="251" 
d="M105 715l91 -1l-82 -216h-59z" />
    <glyph glyph-name="quotesinglbase" unicode="&#x201a;" horiz-adv-x="251" 
d="M101 101h94l-82 -216h-62z" />
    <glyph glyph-name="quotedblleft" unicode="&#x201c;" horiz-adv-x="404" 
d="M137 715h60l-50 -216h-92zM283 715h59l-50 -217h-91z" />
    <glyph glyph-name="quotedblright" unicode="&#x201d;" horiz-adv-x="404" 
d="M107 715h91l-82 -217h-59zM253 715h92l-83 -217h-59z" />
    <glyph glyph-name="quotedblbase" unicode="&#x201e;" horiz-adv-x="395" 
d="M97 101h91l-82 -216h-59zM242 101h92l-82 -216h-60z" />
    <glyph glyph-name="dagger" unicode="&#x2020;" 
d="M283 430l-208 -18v78l207 -17l-19 242h83l-18 -242l209 17v-78l-210 18l18 -622h-80z" />
    <glyph glyph-name="daggerdbl" unicode="&#x2021;" 
d="M282 52l-207 -19v80l207 -18l-13 167l13 166l-207 -18v80l207 -19l-19 244h83l-18 -244l209 19v-80l-210 18l14 -166l-14 -167l210 18v-80l-209 19l18 -244h-83z" />
    <glyph glyph-name="bullet" unicode="&#x2022;" horiz-adv-x="429" 
d="M215 152q-53 0 -84.5 32t-31.5 84q0 54 33 86t83 32q51 0 82.5 -31.5t31.5 -85.5q0 -52 -32 -84.5t-82 -32.5z" />
    <glyph glyph-name="ellipsis" unicode="&#x2026;" horiz-adv-x="713" 
d="M85 114h81v-114h-81v114zM316 114h81v-114h-81v114zM547 114h81v-114h-81v114z" />
    <glyph glyph-name="perthousand" unicode="&#x2030;" horiz-adv-x="904" 
d="M165 363q-60 0 -90.5 46.5t-30.5 134.5q0 89 31 135t91 46q61 0 91 -46t30 -135q0 -88 -31 -134.5t-91 -46.5zM442 715h61l-316 -715h-62zM165 402q69 0 69 143q0 141 -69 141q-34 0 -50.5 -34.5t-16.5 -106.5q0 -143 67 -143zM460 -8q-60 0 -90.5 46.5t-30.5 134.5
q0 89 31 135t91 46t90.5 -46t30.5 -135q0 -88 -31 -134.5t-91 -46.5zM739 -8q-60 0 -90.5 46.5t-30.5 134.5q0 89 31 135t91 46q61 0 91 -46t30 -135q0 -88 -31 -134.5t-91 -46.5zM460 31q68 0 68 143q0 141 -68 141q-34 0 -50.5 -34.5t-16.5 -106.5q0 -143 67 -143zM739 31
q69 0 69 143q0 141 -69 141q-34 0 -50.5 -34.5t-16.5 -106.5q0 -143 67 -143z" />
    <glyph glyph-name="guilsinglleft" unicode="&#x2039;" horiz-adv-x="343" 
d="M59 271l200 223l25 -40l-135 -183l135 -184l-25 -39z" />
    <glyph glyph-name="guilsinglright" unicode="&#x203a;" horiz-adv-x="343" 
d="M59 87l134 184l-134 183l25 40l200 -223l-200 -223z" />
    <glyph glyph-name="fraction" unicode="&#x2044;" horiz-adv-x="40" 
d="M150 715h61l-320 -715h-62z" />
    <glyph glyph-name="Euro" unicode="&#x20ac;" 
d="M401 58q35 0 62 5.5t47 11.5q22 7 39 17l-10 -58q-15 -12 -38 -22q-20 -9 -49 -15.5t-69 -6.5q-54 0 -95 20t-70 55t-46 83t-25 105h-96v56h90q0 12 -0.5 23.5t-0.5 23.5q0 11 0.5 22.5t0.5 22.5h-90v56h95q7 58 24 107t45.5 84t69.5 55t96 20q37 0 64 -6t45 -14
q21 -9 35 -20l10 -86q-17 18 -40 33q-21 13 -47.5 23t-61.5 10q-38 0 -66 -15t-47 -42.5t-30 -65.5t-16 -83h258v-56h-262q-1 -11 -1 -20.5v-20.5v-25.5t1 -25.5h262v-56h-257q6 -44 19 -80t34 -61.5t50.5 -39.5t69.5 -14z" />
    <glyph glyph-name="trademark" unicode="&#x2122;" horiz-adv-x="815" 
d="M174 674h-106l4 41h267l3 -41h-105v-300h-63v300zM392 715h80l86 -262l89 262h77v-341h-63v251l-85 -251h-53l-86 250v-250h-45v341z" />
    <glyph glyph-name="partialdiff" unicode="&#x2202;" 
d="M295 -10q-45 0 -85.5 16t-72 46t-50 73.5t-18.5 97.5q0 59 16.5 103.5t45 74t67.5 44t83 14.5q42 0 74 -12t54.5 -30t36 -38.5t19.5 -37.5q0 90 -17 152.5t-46 100.5t-67 55t-80 17q-34 0 -60.5 -7.5t-45.5 -15.5q-21 -11 -37 -24l6 72q15 10 35 17q19 7 44.5 12t60.5 5
q61 0 113.5 -24t91.5 -71.5t61.5 -118.5t22.5 -164q0 -94 -19.5 -161.5t-53 -111t-79.5 -64t-100 -20.5zM299 45q34 0 61.5 13.5t47.5 38.5t31 60.5t11 78.5q0 37 -12.5 67.5t-33.5 52t-49.5 33.5t-60.5 12q-69 0 -105.5 -44.5t-36.5 -127.5q0 -44 11 -78t31 -57.5t47 -36
t58 -12.5z" />
    <glyph glyph-name="product" unicode="&#x220f;" horiz-adv-x="611" 
d="M144 658h-93l4 57h501l5 -57h-92v-658h-82v658h-161v-658h-82v658z" />
    <glyph glyph-name="summation" unicode="&#x2211;" 
d="M72 -63l253 357l-253 362v59h470v-157h-57v107h-332l253 -371l-253 -367h332v107h57v-157h-470v60z" />
    <glyph glyph-name="minus" unicode="&#x2212;" 
d="M89 298h433v-59h-433v59z" />
    <glyph glyph-name="radical" unicode="&#x221a;" horiz-adv-x="610" 
d="M112 433h-85l2 53h139l117 -407l176 646h140v-54h-98l-188 -671h-71z" />
    <glyph glyph-name="infinity" unicode="&#x221e;" horiz-adv-x="846" 
d="M605 462q41 0 74.5 -14t57 -39.5t36.5 -61.5t13 -80t-13.5 -80t-37.5 -62t-58 -40t-75 -14q-40 0 -68.5 12.5t-49 33t-35.5 47.5t-28 55q-13 -28 -28.5 -55t-36.5 -47.5t-49 -33t-67 -12.5q-41 0 -74.5 14t-57 39.5t-36.5 62t-13 80.5t13.5 79.5t38 61.5t58.5 40t75 14
q39 0 67 -11.5t49 -30t36 -43t27 -51.5q14 27 30.5 51.5t38 43t49.5 30t64 11.5zM245 139q29 0 51.5 11t40 29.5t32 43t27.5 50.5q-11 24 -24.5 46t-31 38.5t-40.5 26t-54 9.5q-58 0 -93 -33t-35 -93t34.5 -94t92.5 -34zM600 140q58 0 92.5 33.5t34.5 93.5t-34.5 93
t-91.5 33q-31 0 -54.5 -9.5t-41.5 -26t-32 -38.5t-26 -46q12 -26 25 -50t30.5 -42.5t41 -29.5t56.5 -11z" />
    <glyph glyph-name="integral" unicode="&#x222b;" horiz-adv-x="391" 
d="M81 -202q-15 0 -27 2.5t-20 5.5q-10 4 -18 8l-6 53l14 -4q7 -1 15 -2t17 -1q36 0 55.5 21t19.5 70v613q0 76 43.5 115.5t107.5 39.5q37 0 61.5 -9.5t25.5 -10.5l7 -61q-10 6 -23 10q-11 4 -26 7t-33 3q-17 0 -32 -4t-26.5 -14t-18 -27.5t-6.5 -44.5v-612q0 -42 -10.5 -72
t-28 -49t-41 -28t-50.5 -9z" />
    <glyph glyph-name="approxequal" unicode="&#x2248;" 
d="M395 284q-36 0 -62 11.5t-47.5 25.5t-43 25.5t-49.5 11.5q-25 0 -44.5 -11t-32.5 -24q-16 -16 -27 -36v63q14 20 33 36q17 15 39.5 25.5t52.5 10.5q36 0 62 -11.5t48 -25.5t44 -25.5t49 -11.5q25 0 44.5 11t32.5 25q16 15 28 35v-62q-14 -20 -33 -36q-18 -15 -41 -26
t-53 -11zM395 123q-36 0 -61.5 11.5t-47.5 25.5t-43.5 25.5t-49.5 11.5q-25 0 -44.5 -11t-32.5 -24q-16 -16 -27 -36v63q14 20 33 37q17 14 39.5 25t52.5 11q36 0 62 -11.5t48.5 -26t44 -26t48.5 -11.5q25 0 44.5 11t32.5 25q16 16 28 36v-64q-14 -20 -33 -36
q-18 -15 -41 -25.5t-53 -10.5z" />
    <glyph glyph-name="notequal" unicode="&#x2260;" 
d="M354 319l-31 -101h199v-58h-217l-34 -110h-60l34 110h-156v58h174l32 101h-206v58h224l34 109h59l-34 -109h150v-58h-168z" />
    <glyph glyph-name="lessequal" unicode="&#x2264;" 
d="M89 274v60l433 161v-66l-359 -125l359 -125v-65zM89 58h433v-58h-433v58z" />
    <glyph glyph-name="greaterequal" unicode="&#x2265;" horiz-adv-x="611" 
d="M88 179l359 125l-359 125v66l434 -161v-60l-434 -160v65zM88 58h434v-58h-434v58z" />
    <glyph glyph-name="lozenge" unicode="&#x25ca;" 
d="M41 288l266 274l263 -274l-263 -274zM493 288l-186 194l-187 -194l187 -194z" />
    <glyph glyph-name="eight.dnom" horiz-adv-x="320" 
d="M160 -10q-56 0 -90 27t-34 72q0 20 6.5 34t16 24.5t21 17t21.5 10.5q-22 10 -36.5 32t-14.5 49q0 43 30 70t80 27q51 0 81 -25.5t30 -68.5q0 -26 -14.5 -47t-38.5 -33q29 -9 47.5 -31t18.5 -56q0 -45 -34.5 -73.5t-89.5 -28.5zM162 194q23 0 39.5 18t16.5 44
q0 29 -15.5 44t-42.5 15t-42.5 -15.5t-15.5 -44.5q0 -27 17 -44t43 -17zM161 28q33 0 51.5 16.5t18.5 46.5q0 29 -19 45.5t-51 16.5q-33 0 -52 -16.5t-19 -45.5q0 -31 18.5 -47t52.5 -16z" />
    <glyph glyph-name="eight.osf" 
d="M306 -10q-54 0 -99 13.5t-77.5 38.5t-51 61.5t-18.5 82.5q0 47 17 79t41 52.5t49.5 31.5t41.5 16q-15 5 -35.5 16t-39 31t-32 50t-13.5 73t15.5 78t44 60t68.5 38.5t89 13.5t89 -13t68.5 -37t44 -58t15.5 -76q0 -40 -13.5 -69.5t-33 -50t-40 -32t-34.5 -16.5
q17 -4 42 -14.5t49 -31t41 -53.5t17 -83q0 -46 -18.5 -83t-51.5 -63t-77.5 -40.5t-97.5 -14.5zM309 395q27 0 50.5 10.5t41.5 29t28.5 44.5t10.5 57q0 63 -34 99t-100 36q-64 0 -99 -36.5t-35 -100.5q0 -66 39 -102.5t98 -36.5zM307 44q75 0 118 38.5t43 107.5
q0 35 -12.5 61.5t-34 44.5t-50.5 27t-63 9t-63.5 -9t-51.5 -27t-35 -44.5t-13 -61.5q0 -69 42.5 -107.5t119.5 -38.5z" />
    <glyph glyph-name="five.dnom" horiz-adv-x="320" 
d="M153 -10q-28 0 -48.5 6t-34.5 13q-17 8 -29 19l-5 48q14 -12 32 -21q16 -9 36.5 -15.5t46.5 -6.5q32 0 50.5 17.5t18.5 49.5q0 39 -28 57.5t-93 24.5l-45 4l22 156h177l5 -44h-146l-9 -77l16 -1q157 -15 157 -119q0 -49 -34.5 -80t-88.5 -31z" />
    <glyph glyph-name="five.osf" 
d="M226 246q155 -13 236.5 -67.5t81.5 -166.5q0 -44 -17.5 -82.5t-49 -67t-76.5 -45.5t-100 -17q-54 0 -95.5 10.5t-70.5 23.5q-33 16 -58 35l-7 82q28 -24 64 -44q32 -17 72.5 -30t90.5 -13q79 0 118 42.5t39 104.5q0 48 -18.5 80.5t-53.5 53t-84.5 31t-111.5 15.5l-78 7
l42 289h348l6 -69h-302l-23 -168z" />
    <glyph glyph-name="four.dnom" horiz-adv-x="320" 
d="M188 86h-158v31l152 225h59v-217h52v-39h-52v-86h-53v86zM188 125v151l-102 -151h102z" />
    <glyph glyph-name="four.osf" 
d="M570 0h-109v-190h-82v190h-333v50l321 437h94v-428h109v-59zM379 59v336l-253 -336h253z" />
    <glyph glyph-name="i.loclTRK" horiz-adv-x="247" 
d="M83 705h82v-111h-82v111zM83 487h81v-487h-81v487z" />
    <glyph glyph-name="nine.dnom" horiz-adv-x="320" 
d="M138 -8q-18 0 -31.5 2.5t-22.5 6.5q-11 3 -19 8l-4 44q7 -6 18 -10q10 -5 23.5 -8t31.5 -3q42 0 67.5 34.5t27.5 94.5q-11 -17 -31.5 -30.5t-50.5 -13.5q-50 0 -78 31t-28 85q0 26 8.5 47.5t24 37.5t36 25t44.5 9q62 0 95.5 -46t33.5 -130q0 -85 -39 -134.5t-106 -49.5z
M155 156q29 0 48.5 21t19.5 52q0 38 -19.5 61.5t-49.5 23.5q-28 0 -43.5 -22t-15.5 -60q0 -76 60 -76z" />
    <glyph glyph-name="nine.osf" 
d="M253 -202q-35 0 -61 5t-44 11q-20 7 -35 16l-6 73q16 -13 37 -23q20 -9 46 -15.5t60 -6.5q42 0 80.5 16t67 52t45.5 94t17 143q-6 -16 -20 -36t-37 -37t-56 -28.5t-75 -11.5q-44 0 -82 13.5t-66 40.5t-44 68t-16 97q0 52 18 94t48.5 71.5t71 45.5t85.5 16
q56 0 102.5 -19.5t80.5 -60.5t53 -105.5t19 -153.5t-22.5 -156t-61.5 -112t-91.5 -68t-113.5 -23zM289 109q32 0 60.5 11.5t49.5 31.5t33.5 48t12.5 62q0 40 -11 73t-32 57t-50 37t-65 13q-63 0 -101.5 -46t-38.5 -127q0 -76 36.5 -118t105.5 -42z" />
    <glyph glyph-name="one.dnom" horiz-adv-x="320" 
d="M38 39h98v248l-77 -45l4 46l91 54h37v-303h87l-3 -39h-233z" />
    <glyph glyph-name="one.osf" horiz-adv-x="387" 
d="M303 486v-486h-85v405l-159 -93l5 66l179 108h60z" />
    <glyph glyph-name="seven.dnom" horiz-adv-x="321" 
d="M223 300h-186l2 42h242v-37l-142 -305h-55z" />
    <glyph glyph-name="seven.osf" horiz-adv-x="611" 
d="M549 487v-64l-284 -613h-85l280 612h-394l6 65h477z" />
    <glyph glyph-name="six.dnom" horiz-adv-x="320" 
d="M167 -10q-61 0 -94.5 46t-33.5 130q0 85 39 134.5t105 49.5q18 0 31.5 -2.5t23.5 -5.5q10 -4 18 -9l4 -44q-7 6 -18 11q-10 4 -23.5 7t-31.5 3q-41 0 -67 -34.5t-28 -94.5q11 17 32 30.5t50 13.5q50 0 78 -31t28 -85q0 -51 -32 -85t-81 -34zM167 28q28 0 44 22t16 60
q0 76 -61 76q-29 0 -48 -21t-19 -52q0 -38 19 -61.5t49 -23.5z" />
    <glyph glyph-name="six.osf" 
d="M339 459q44 0 82 -14t66 -42.5t44 -71.5t16 -102q0 -55 -18 -99t-48.5 -75t-70.5 -48t-85 -17q-55 0 -101.5 20.5t-81 64t-54 111t-19.5 161.5q0 93 22.5 164t61.5 118.5t92 71.5t114 24q35 0 61 -5.5t43 -11.5q21 -7 35 -17l7 -72q-16 13 -37 24q-20 9 -46 16t-60 7
q-42 0 -80.5 -17t-67.5 -55t-46 -100.5t-17 -152.5q6 17 20.5 37.5t37.5 38.5t55.5 30t74.5 12zM324 44q63 0 103 48.5t40 136.5q0 83 -38 127.5t-107 44.5q-32 0 -60.5 -12t-49.5 -33.5t-33.5 -52t-12.5 -67.5q0 -43 12 -78.5t33 -60.5t50 -39t63 -14z" />
    <glyph glyph-name="three.dnom" horiz-adv-x="320" 
d="M157 -10q-28 0 -49 6t-36 13q-16 8 -28 19l-5 48q14 -12 33 -21q16 -9 37 -15.5t47 -6.5q35 0 54 17.5t19 46.5q0 61 -64 61h-61v35h56q28 0 44.5 16.5t16.5 45.5q0 55 -62 55q-25 0 -46.5 -6.5t-37.5 -14.5q-18 -10 -33 -22l6 48q13 11 30 19q16 8 36.5 13.5t47.5 5.5
q53 0 83 -25t30 -68q0 -32 -16.5 -51.5t-31.5 -28.5q9 -3 19 -9.5t18.5 -16.5t14.5 -24t6 -34q0 -47 -35 -76.5t-93 -29.5z" />
    <glyph glyph-name="three.osf" 
d="M400 162q14 -3 37.5 -12t46.5 -28t40 -49t17 -75q0 -43 -18.5 -79t-51.5 -62.5t-78.5 -41.5t-99.5 -15q-55 0 -95.5 10.5t-68.5 22.5q-32 15 -54 34l-5 82q24 -24 57 -43q30 -17 70 -29.5t94 -12.5q38 0 68 10.5t51.5 28.5t33 43t11.5 54q0 65 -43 96.5t-110 31.5h-113
v55h103q62 0 102 34.5t40 96.5q0 54 -35.5 86t-104.5 32q-48 0 -88 -13t-68 -28q-34 -18 -61 -41l8 75q25 20 58 36q30 14 68.5 24.5t87.5 10.5q104 0 162.5 -45.5t58.5 -126.5q0 -38 -14 -66.5t-33.5 -48t-40 -31t-32.5 -16.5z" />
    <glyph glyph-name="two.dnom" horiz-adv-x="320" 
d="M41 5q0 41 23 72t74 69l26 19q31 23 44 42t13 46q0 28 -16.5 42.5t-45.5 14.5q-25 0 -46.5 -6.5t-37.5 -14.5q-18 -10 -33 -22l6 48q13 11 30 19q16 8 36.5 13.5t47.5 5.5q53 0 82.5 -25.5t29.5 -71.5q0 -38 -18 -66t-54 -54l-27 -19q-36 -26 -52.5 -44.5t-23.5 -33.5
h182l-2 -39h-238v5z" />
    <glyph glyph-name="two.osf" 
d="M548 59l-5 -59h-469v6q0 37 14 67t38.5 53.5t58.5 41t73 29.5l58 18q66 21 98 46t32 74q0 45 -33.5 71.5t-104.5 26.5q-51 0 -93 -13t-72 -29q-35 -18 -63 -42l9 78q27 20 62 35q31 14 71.5 24.5t92.5 10.5q110 0 163.5 -43.5t53.5 -115.5q0 -36 -12.5 -63.5t-34.5 -48
t-51.5 -35t-62.5 -23.5l-61 -17q-56 -15 -94.5 -39t-50.5 -53h383z" />
    <glyph glyph-name="zero.dnom" horiz-adv-x="320" 
d="M160 -10q-60 0 -90.5 46.5t-30.5 134.5q0 89 31 135t91 46t90.5 -46t30.5 -135q0 -88 -31 -134.5t-91 -46.5zM160 29q68 0 68 143q0 141 -68 141q-34 0 -50.5 -34.5t-16.5 -106.5q0 -143 67 -143z" />
    <glyph glyph-name="zero.osf" 
d="M305 -9q-54 0 -98 15.5t-75.5 47t-48.5 79t-17 111.5q0 126 65 189t176 63q112 0 175 -62t63 -190q0 -64 -17.5 -111.5t-49 -79t-76 -47t-97.5 -15.5zM306 49q74 0 114 45t40 148t-39.5 149.5t-114.5 46.5t-114.5 -46.5t-39.5 -149.5t39.5 -148t114.5 -45z" />
    </font>
</defs>
</svg>
