<?xml version="1.0" standalone="no"?>
<!DOCTYPE svg PUBLIC "-//W3C//DTD SVG 1.1//EN" "http://www.w3.org/Graphics/SVG/1.1/DTD/svg11.dtd" >
<svg xmlns="http://www.w3.org/2000/svg" width="100%" height="100%">
<metadata>
Created Thu Feb 25 12:50:09 2016 by PreussType
Copyright (c) 2016 by Hubert Jocham. All rights reserved.
</metadata>
<defs>
<font id="HamburgSans-Italic" horiz-adv-x="579" >
  <font-face 
    font-family="HamburgSans"
    font-weight="400"
    font-style="italic"
    font-stretch="normal"
    units-per-em="1000"
    panose-1="2 11 5 3 4 0 0 2 0 3"
    ascent="800"
    descent="-200"
    x-height="486"
    cap-height="715"
    bbox="-420 -300 1013 924"
    underline-thickness="50"
    underline-position="-50"
    unicode-range="U+000D-FB02"
  />
<missing-glyph horiz-adv-x="500" 
d="M410 -250h-317v1000h317v-1000zM168 683v-33h65v-37h-66v-33h166v33h-66v37h66v33h-165zM167 554v-104h166v34h-66v70h-100zM233 484h-33v36h33v-36zM167 423v-33h66v-37h-66v-33h100v70h66v33h-166zM300 363v-66h-133v-34h166v100h-33zM233 241v-56h34v23h33v-47h-100
v80h-33v-113h166v113h-100zM167 68v-113h166v113h-166zM300 -12h-100v47h100v-47zM167 -68v-33h70l-70 -47v-33h166v33h-102l70 47h32v33h-166z" />
    <glyph glyph-name="fi" unicode="fi" horiz-adv-x="570" 
d="M410 725q46 0 78 -7t52 -16q24 -10 40 -23l-10 -77q-17 18 -42 33q-23 13 -54.5 22.5t-76.5 9.5q-64 0 -98.5 -31.5t-45.5 -84.5l-14 -65h307l-103 -486h-79l93 435h-228l-93 -435h-77l92 435h-86l10 51h87l12 58q8 38 28 71t50 57.5t70 38.5t88 14z" />
    <glyph glyph-name="fl" unicode="fl" horiz-adv-x="582" 
d="M415 725q46 0 80 -8t57 -17q26 -12 45 -26l-143 -674h-78l136 643q-12 7 -29 13q-15 5 -34 9t-44 4q-66 0 -102.5 -29.5t-50.5 -90.5l-13 -63h144l-7 -51h-148l-92 -435h-77l92 435h-82l11 51h82l12 58q17 81 78.5 131t162.5 50z" />
    <glyph glyph-name=".notdef" horiz-adv-x="500" 
d="M410 -250h-317v1000h317v-1000zM168 683v-33h65v-37h-66v-33h166v33h-66v37h66v33h-165zM167 554v-104h166v34h-66v70h-100zM233 484h-33v36h33v-36zM167 423v-33h66v-37h-66v-33h100v70h66v33h-166zM300 363v-66h-133v-34h166v100h-33zM233 241v-56h34v23h33v-47h-100
v80h-33v-113h166v113h-100zM167 68v-113h166v113h-166zM300 -12h-100v47h100v-47zM167 -68v-33h70l-70 -47v-33h166v33h-102l70 47h32v33h-166z" />
    <glyph glyph-name=".null" horiz-adv-x="0" 
 />
    <glyph glyph-name=".null" horiz-adv-x="0" 
 />
    <glyph glyph-name="nonmarkingreturn" unicode="&#xd;" horiz-adv-x="250" 
 />
    <glyph glyph-name="space" unicode=" " horiz-adv-x="265" 
 />
    <glyph glyph-name="exclam" unicode="!" horiz-adv-x="240" 
d="M176 715h85l-115 -486h-63zM49 113h79l-24 -113h-78z" />
    <glyph glyph-name="quotedbl" unicode="&#x22;" horiz-adv-x="378" 
d="M175 715h81l-57 -218h-60zM323 715h80l-57 -218h-61z" />
    <glyph glyph-name="numbersign" unicode="#" horiz-adv-x="578" 
d="M447 419l-29 -119h111l-6 -57h-119l-59 -243h-58l59 243h-123l-59 -243h-59l59 243h-99l6 57h108l29 119h-111l7 57h118l58 239h57l-58 -239h124l58 239h57l-57 -239h101l-7 -57h-108zM389 419h-124l-28 -119h123z" />
    <glyph glyph-name="dollar" unicode="$" 
d="M414 714q48 -2 80.5 -11.5t53.5 -19.5q24 -13 39 -28l-11 -101q-19 27 -47 49q-26 20 -63 34.5t-90 14.5q-76 0 -122.5 -39.5t-46.5 -103.5q0 -36 23.5 -58.5t65.5 -38.5l67 -26q33 -12 60.5 -26.5t47.5 -33.5t31.5 -44t11.5 -58q0 -49 -19.5 -88.5t-53.5 -68t-80 -45.5
t-99 -21l-30 -139h-55l30 139q-48 3 -82 13t-57 21q-27 12 -45 28l12 92q23 -26 55 -47q28 -19 67 -33t92 -14q79 0 128 38t49 104q0 42 -29.5 65.5t-80.5 43.5l-67 26q-58 22 -92.5 58t-34.5 96q0 48 17.5 87t49 67.5t75 46t94.5 21.5l30 139h55z" />
    <glyph glyph-name="percent" unicode="%" horiz-adv-x="594" 
d="M182 363q-44 0 -66 28t-22 81q0 45 10.5 90.5t31 81.5t51.5 58.5t71 22.5q44 0 65.5 -27.5t21.5 -79.5q0 -45 -10.5 -90.5t-31 -82t-51 -59.5t-70.5 -23zM521 715h58l-455 -715h-61zM189 402q26 0 45.5 22.5t32.5 55.5t20 70.5t7 67.5q0 68 -45 68q-25 0 -44.5 -22.5
t-33 -55.5t-20 -70t-6.5 -66q0 -37 11 -53.5t33 -16.5zM386 -10q-44 0 -65.5 28t-21.5 81q0 45 10.5 90.5t30.5 81.5t51 58.5t71 22.5q44 0 65.5 -27.5t21.5 -79.5q0 -45 -10.5 -90.5t-30.5 -82t-50.5 -59.5t-71.5 -23zM393 29q26 0 45.5 23t33 56t20 70.5t6.5 66.5
q0 68 -45 68q-25 0 -44.5 -22.5t-33 -55.5t-20 -70t-6.5 -66q0 -37 11 -53.5t33 -16.5z" />
    <glyph glyph-name="ampersand" unicode="&#x26;" horiz-adv-x="760" 
d="M502 106q35 -25 71 -38.5t73 -13.5h26l-20 -51q-8 -4 -17 -7q-9 -2 -20 -4t-25 -2q-35 0 -73.5 17.5t-77.5 49.5q-46 -31 -99 -49t-113 -18q-83 0 -134 40.5t-51 115.5q0 47 16 82t43 61.5t62 46.5t73 37q-6 25 -9.5 49.5t-3.5 49.5q0 51 16.5 95.5t46.5 77.5t70.5 51.5
t88.5 18.5q63 0 97.5 -32.5t34.5 -83.5q0 -53 -23 -89t-59.5 -61.5t-82.5 -44.5l-92 -38q20 -66 59 -126t88 -105q37 35 65 77.5t47 87t28.5 88t9.5 78.5l63 -14q0 -36 -12 -80t-35 -90t-56 -91.5t-75 -84.5zM301 483q0 -39 9 -80q39 16 75 33.5t63 39t43.5 50t16.5 67.5
q0 33 -18.5 54t-55.5 21q-33 0 -58 -16t-41.5 -42t-25 -59t-8.5 -68zM254 47q42 0 80 10.5t70 30.5q-49 48 -90.5 111.5t-65.5 133.5q-52 -27 -87 -67t-35 -106q0 -53 34 -83t94 -30z" />
    <glyph glyph-name="quotesingle" unicode="'" horiz-adv-x="232" 
d="M175 715h81l-56 -218h-61z" />
    <glyph glyph-name="parenleft" unicode="(" horiz-adv-x="296" 
d="M144 -123q-11 15 -25.5 42t-27.5 64.5t-22 85t-9 102.5q0 78 19.5 155t54.5 147.5t83 132t105 109.5h50q-54 -45 -97.5 -117.5t-74.5 -155t-47.5 -167.5t-16.5 -155q0 -47 6 -86.5t14.5 -70t18.5 -52.5t19 -34h-50z" />
    <glyph glyph-name="parenright" unicode=")" horiz-adv-x="296" 
d="M-52 -123q54 45 97.5 117.5t74.5 155t47.5 167.5t16.5 155q0 47 -6 86.5t-14.5 70t-18.5 52.5t-19 34h50q11 -15 25.5 -42t27.5 -64.5t22 -84.5t9 -103q0 -78 -19.5 -155t-54.5 -147.5t-83 -132t-105 -109.5h-50z" />
    <glyph glyph-name="asterisk" unicode="*" horiz-adv-x="549" 
d="M200 425l102 106l-146 28l24 73l134 -65l-20 148h77l-21 -149l135 67l24 -74l-147 -26l102 -107l-63 -45l-68 129l-70 -129z" />
    <glyph glyph-name="plus" unicode="+" 
d="M259 239h-186v59h186v188h59v-188h188v-59h-188v-189h-59v189z" />
    <glyph glyph-name="comma" unicode="," horiz-adv-x="232" 
d="M62 101h90l-124 -216h-60z" />
    <glyph glyph-name="hyphen" unicode="-" horiz-adv-x="385" 
d="M73 299h262l-13 -61h-261z" />
    <glyph glyph-name="period" unicode="." horiz-adv-x="232" 
d="M49 114h78l-24 -114h-78z" />
    <glyph glyph-name="slash" unicode="/" horiz-adv-x="438" 
d="M441 725h60l-455 -735h-61z" />
    <glyph glyph-name="zero" unicode="0" 
d="M234 -9q-79 0 -124.5 52t-45.5 162q0 55 8.5 114.5t26.5 117.5t45 110t63.5 91.5t82.5 63t102 23.5q82 0 127 -50.5t45 -157.5q0 -54 -9 -114t-27 -118.5t-45 -111.5t-64 -93.5t-83 -64.5t-102 -24zM248 49q39 0 71.5 22.5t58.5 59.5t46 86t33.5 101t20.5 104.5t7 97.5
q0 79 -27.5 113.5t-78.5 34.5q-38 0 -71 -22t-59 -59.5t-46 -86t-33.5 -100.5t-20.5 -105t-7 -98q0 -79 27.5 -113.5t78.5 -34.5z" />
    <glyph glyph-name="one" unicode="1" 
d="M25 57h197l122 576l-171 -93l18 66l195 108h58l-140 -657h176l-13 -57h-449z" />
    <glyph glyph-name="two" unicode="2" 
d="M18 5q9 41 33 78.5t58.5 73t76.5 68t86 62.5l58 40q35 24 65 50t52 54.5t34.5 61t12.5 69.5q0 45 -27.5 71t-84.5 26q-49 0 -92 -14t-75 -31q-38 -21 -69 -46l22 78q30 22 66 40q33 16 74 27.5t91 11.5q91 0 135 -42.5t44 -112.5q0 -46 -16 -87t-44 -76.5t-64.5 -66.5
t-77.5 -58l-59 -40q-28 -19 -59 -41.5t-59 -46.5t-50 -49t-33 -48h369l-16 -57h-452z" />
    <glyph glyph-name="three" unicode="3" 
d="M235 -10q-53 0 -90.5 11t-61.5 25q-29 15 -48 35l10 84q19 -25 48 -44q26 -19 62.5 -32t87.5 -13q42 0 76 14.5t58 39t37 58t13 71.5q0 52 -32.5 77t-87.5 25h-110l11 51h100q37 0 68 14t53.5 37.5t35.5 54.5t13 66q0 45 -28 70.5t-86 25.5q-47 0 -87.5 -13t-70.5 -29
q-36 -19 -66 -43l20 75q28 21 63 38q32 15 71 26t86 11q88 0 136 -39t48 -108q0 -38 -13 -70.5t-35 -59t-50.5 -46t-58.5 -31.5q11 -3 28.5 -10t34.5 -22t29.5 -39t12.5 -61q0 -53 -22 -98.5t-60 -79t-88 -52.5t-107 -19z" />
    <glyph glyph-name="four" unicode="4" 
d="M346 180h-320l11 50l412 485h90l-101 -476h104l-12 -59h-104l-39 -180h-79zM358 239l83 388l-325 -388h242z" />
    <glyph glyph-name="five" unicode="5" 
d="M240 -9q-52 0 -90 10.5t-64 24.5q-29 15 -50 34l9 82q23 -24 54 -43q27 -18 64 -30.5t85 -12.5q42 0 75.5 15t57 41t36 61t12.5 74q0 37 -15.5 63.5t-44.5 44t-70 27.5t-91 14l-75 6l106 313h336l-10 -70h-289l-64 -190l45 -4q126 -11 193 -58t67 -135q0 -56 -22 -105
t-59.5 -85t-88 -56.5t-107.5 -20.5z" />
    <glyph glyph-name="six" unicode="6" 
d="M263 -10q-43 0 -79 14t-61.5 43.5t-39.5 75t-14 107.5q0 94 26 183t74 158.5t117 111.5t156 42q34 0 58 -5.5t40 -11.5q18 -7 30 -17l-9 -72q-13 13 -31 24q-17 9 -40.5 16t-56.5 7q-40 0 -82.5 -17t-80 -55t-67 -100.5t-45.5 -152.5q8 17 25.5 37.5t43 38.5t59 30
t74.5 12q73 0 118 -42.5t45 -127.5q0 -60 -19.5 -114t-54.5 -95t-82.5 -65.5t-103.5 -24.5zM271 45q41 0 73.5 21t54.5 55t33.5 76t11.5 84q0 58 -28 89t-83 31q-40 0 -73.5 -17.5t-58 -46.5t-38.5 -68t-14 -82q0 -66 32.5 -104t89.5 -38z" />
    <glyph glyph-name="seven" unicode="7" 
d="M525 651h-380l20 64h459l-14 -64l-421 -651h-82z" />
    <glyph glyph-name="eight" unicode="8" 
d="M247 -10q-93 0 -148.5 43t-55.5 119q0 43 13.5 77.5t38 61.5t57.5 46t72 31q-12 4 -27 13t-28.5 24.5t-23 38.5t-9.5 54q0 50 19 91.5t52 71.5t78 47t98 17q85 0 132 -40t47 -109q0 -37 -11.5 -69.5t-32 -59t-48.5 -46.5t-60 -31q14 -4 33.5 -12.5t37 -24.5t30 -41
t12.5 -63q0 -54 -22 -98t-59.5 -75.5t-87.5 -48.5t-107 -17zM326 395q33 0 61 14.5t48.5 39t32.5 56.5t12 66q0 48 -26.5 74t-80.5 26q-37 0 -66 -13.5t-49 -36.5t-30.5 -53.5t-10.5 -65.5q0 -51 30 -79t79 -28zM258 44q41 0 74.5 13.5t57.5 37t37.5 56t13.5 69.5
q0 56 -36 84t-95 28q-39 0 -73 -12.5t-59 -36t-39 -55.5t-14 -71q0 -54 34.5 -83.5t98.5 -29.5z" />
    <glyph glyph-name="nine" unicode="9" 
d="M182 -10q-34 0 -58 5.5t-40 11.5q-18 7 -30 17l10 72q13 -13 31 -23q17 -10 40 -17t56 -7q41 0 83 17t79.5 55t67.5 100.5t46 152.5q-8 -17 -25.5 -37.5t-43 -38.5t-59 -30t-74.5 -12q-73 0 -118.5 42.5t-45.5 127.5q0 60 19.5 114t54.5 95t82.5 65.5t103.5 24.5
q43 0 79 -14t61.5 -43.5t39.5 -75t14 -107.5q0 -94 -26 -183t-74 -158.5t-117 -111.5t-156 -42zM291 314q40 0 74 17.5t58.5 46.5t38.5 68t14 82q0 66 -33 104t-89 38q-42 0 -74 -21t-54 -55t-33.5 -76t-11.5 -84q0 -58 28 -89t82 -31z" />
    <glyph glyph-name="colon" unicode=":" horiz-adv-x="232" 
d="M128 486h79l-24 -114h-78zM49 114h78l-24 -114h-78z" />
    <glyph glyph-name="semicolon" unicode=";" horiz-adv-x="233" 
d="M136 486h78l-24 -114h-79zM51 101h90l-120 -216h-60z" />
    <glyph glyph-name="less" unicode="&#x3c;" 
d="M73 239v61l433 177v-66l-363 -141l363 -142v-66z" />
    <glyph glyph-name="equal" unicode="=" 
d="M73 377h433v-58h-433v58zM73 218h433v-58h-433v58z" />
    <glyph glyph-name="greater" unicode="&#x3e;" 
d="M72 128l364 142l-364 141v66l434 -177v-61l-434 -177v66z" />
    <glyph glyph-name="question" unicode="?" horiz-adv-x="412" 
d="M148 242q0 43 16.5 74.5t41.5 57t54.5 48t54.5 47t41.5 53.5t16.5 67q0 33 -21 51.5t-68 18.5q-39 0 -72.5 -9.5t-58.5 -21.5q-29 -14 -54 -31l21 71q23 16 52 29q26 11 58.5 19.5t73.5 8.5q72 0 109 -35t37 -92q0 -45 -15.5 -78.5t-39.5 -60t-52.5 -48.5t-55 -44.5
t-46.5 -48t-28 -58.5l-7 -31h-58v13zM113 113h78l-25 -113h-78z" />
    <glyph glyph-name="at" unicode="@" horiz-adv-x="900" 
d="M413 -75q-75 0 -138 21t-108.5 60.5t-70.5 97.5t-25 133q0 102 37 191t102.5 155t153.5 104t190 38q78 0 137 -24t98.5 -64.5t59.5 -93.5t20 -111q0 -59 -19 -117t-53 -103.5t-81.5 -73.5t-104.5 -28q-36 0 -57.5 21t-19.5 56q-16 -23 -39 -40q-21 -17 -49 -29t-67 -12
q-51 0 -78.5 26t-27.5 67q0 46 22.5 76t61.5 49t91.5 29t112.5 16l8 44q5 41 -10 58t-60 17q-33 0 -63 -8.5t-53 -19.5q-27 -12 -50 -28l17 62q24 16 52 28q25 11 55 19.5t65 8.5q140 0 115 -142l-38 -203q-4 -21 4 -35.5t31 -14.5q38 0 70 26t55 65.5t36 87t13 90.5
q0 52 -17 97.5t-50.5 79t-82.5 53t-114 19.5q-85 0 -158 -35t-127 -94.5t-84.5 -138.5t-30.5 -167q0 -67 22 -115t60.5 -79.5t90 -46.5t111.5 -15q74 0 128.5 14t90.5 31q42 20 72 45l-19 -57q-31 -25 -73 -45q-39 -18 -91 -31.5t-123 -13.5zM398 159q31 0 56.5 10.5
t44.5 28t31.5 41.5t16.5 51l6 34q-40 -4 -77.5 -10.5t-66 -19.5t-46 -34.5t-17.5 -54.5q0 -21 13 -33.5t39 -12.5z" />
    <glyph glyph-name="A" unicode="A" horiz-adv-x="670" 
d="M467 235h-275l-130 -235h-81l413 715h80l111 -715h-84zM459 287l-49 340l-189 -340h238z" />
    <glyph glyph-name="B" unicode="B" horiz-adv-x="620" 
d="M180 715h246q75 0 121 -33.5t46 -102.5q0 -37 -11.5 -69t-31.5 -58.5t-47 -47t-58 -32.5q12 -3 30.5 -10.5t36 -22.5t29.5 -38.5t12 -58.5q0 -53 -20.5 -97.5t-56.5 -76.5t-84.5 -50t-104.5 -18h-259zM342 392q38 0 69 14.5t52.5 39t33 57t11.5 67.5q0 91 -113 89h-142
l-57 -267h146zM285 56q42 0 76 14t57.5 38.5t36 58t12.5 73.5q0 54 -33.5 77t-89.5 23h-159l-60 -284h160z" />
    <glyph glyph-name="C" unicode="C" horiz-adv-x="644" 
d="M313 -9q-52 0 -96.5 15t-76 46t-49.5 78.5t-18 111.5q0 93 27 180t78 154.5t123.5 108t163.5 40.5q55 0 92.5 -9.5t61.5 -21.5q28 -14 45 -31l-10 -104q-18 28 -46 50q-25 20 -61.5 35t-89.5 15q-72 0 -127 -36t-92 -94t-55.5 -131.5t-18.5 -148.5q0 -50 13 -85t36 -57
t56 -32t72 -10q47 0 87 9t70 21q35 12 63 29l-22 -63q-25 -20 -59 -35q-30 -14 -71 -24.5t-96 -10.5z" />
    <glyph glyph-name="D" unicode="D" horiz-adv-x="685" 
d="M180 715h217q58 0 106 -14.5t83 -44.5t54.5 -76.5t19.5 -111.5q0 -97 -29.5 -182.5t-84.5 -149t-133 -100t-175 -36.5h-210zM243 58q79 0 139.5 34t102 90.5t63 130.5t21.5 153q0 101 -51 146.5t-142 45.5h-123l-127 -600h117z" />
    <glyph glyph-name="E" unicode="E" horiz-adv-x="554" 
d="M180 715h413l-8 -62h-333l-55 -259h290l-11 -55h-291l-59 -277h338l-20 -62h-416z" />
    <glyph glyph-name="F" unicode="F" horiz-adv-x="528" 
d="M180 715h400l-7 -62h-322l-56 -265h289l-12 -55h-289l-70 -333h-85z" />
    <glyph glyph-name="G" unicode="G" horiz-adv-x="685" 
d="M319 -9q-54 0 -99 15.5t-77.5 47t-50.5 80t-18 113.5q0 94 28 180.5t79.5 152.5t125.5 105.5t167 39.5q59 0 98 -10.5t63 -23.5q28 -15 44 -34l-9 -98q-19 28 -48 50q-27 20 -65 35t-93 15q-74 0 -130.5 -35t-94.5 -92t-57.5 -129.5t-19.5 -147.5q0 -53 14 -90.5t39 -61
t61 -34.5t79 -11q31 0 56 3t44 7q22 4 39 10l40 187h-148l11 57h229l-56 -265q-28 -18 -66 -33q-35 -13 -80 -23t-105 -10z" />
    <glyph glyph-name="H" unicode="H" horiz-adv-x="676" 
d="M180 715h85l-69 -322h347l68 322h86l-152 -715h-86l72 338h-346l-72 -338h-85z" />
    <glyph glyph-name="I" unicode="I" horiz-adv-x="245" 
d="M180 715h85l-152 -715h-85z" />
    <glyph glyph-name="J" unicode="J" horiz-adv-x="366" 
d="M84 -8q-23 0 -39.5 3.5t-27.5 7.5q-14 5 -23 11l5 67q10 -6 23 -10q13 -5 28.5 -8t36.5 -3q36 0 63.5 22.5t39.5 80.5l118 552h83l-117 -551q-10 -47 -30 -80t-45.5 -53.5t-55 -29.5t-59.5 -9z" />
    <glyph glyph-name="K" unicode="K" horiz-adv-x="635" 
d="M363 418l183 -418h-96l-153 358l-134 -122l-50 -236h-85l152 715h84l-80 -381l401 381h102z" />
    <glyph glyph-name="L" unicode="L" horiz-adv-x="529" 
d="M180 715h86l-139 -653h321l-18 -62h-402z" />
    <glyph glyph-name="M" unicode="M" horiz-adv-x="802" 
d="M180 715h110l75 -617l340 617h117l-152 -715h-82l130 614l-343 -614h-72l-78 613l-131 -613h-66z" />
    <glyph glyph-name="N" unicode="N" horiz-adv-x="679" 
d="M180 715h101l225 -596l127 596h67l-152 -715h-89l-234 615l-131 -615h-66z" />
    <glyph glyph-name="O" unicode="O" horiz-adv-x="757" 
d="M325 -10q-117 0 -184.5 63.5t-67.5 190.5q0 98 28 185t81 153t128.5 104.5t171.5 38.5q116 0 183.5 -61t67.5 -187q0 -98 -27.5 -186.5t-80 -155t-128.5 -106t-172 -39.5zM337 48q76 0 133.5 37.5t96.5 98.5t59 138.5t20 157.5q0 98 -46.5 142.5t-131.5 44.5
q-75 0 -132.5 -37.5t-96 -98t-58.5 -137.5t-20 -157q0 -98 46.5 -143.5t129.5 -45.5z" />
    <glyph glyph-name="P" unicode="P" horiz-adv-x="592" 
d="M180 715h264q73 0 117 -37t44 -107q0 -51 -18.5 -95t-51 -75.5t-77.5 -49.5t-98 -18h-177l-70 -333h-85zM358 389q40 0 71 13.5t52.5 37.5t32.5 56.5t11 69.5q0 92 -110 92h-163l-57 -269h163z" />
    <glyph glyph-name="Q" unicode="Q" horiz-adv-x="757" 
d="M375 3q16 -47 41 -67.5t76 -20.5q24 0 43.5 3t33.5 6q16 4 29 9l-24 -63q-12 -8 -29 -15q-15 -6 -34.5 -10.5t-44.5 -4.5q-59 0 -104 38t-56 122q-109 5 -170.5 67t-61.5 182q0 97 28 183.5t81 151.5t128.5 103t170.5 38q117 0 184.5 -60t67.5 -185q0 -90 -24.5 -172
t-70.5 -146.5t-113 -106.5t-151 -52zM162 246q0 -98 46.5 -143t130.5 -45q76 0 133.5 36.5t96.5 96.5t58.5 136.5t19.5 155.5q0 96 -47 139.5t-132 43.5q-75 0 -132.5 -36t-96 -95.5t-58 -135t-19.5 -153.5z" />
    <glyph glyph-name="R" unicode="R" horiz-adv-x="601" 
d="M611 572q0 -48 -17.5 -88.5t-48 -71t-72.5 -49.5t-90 -25l133 -338h-90l-129 334h-114l-70 -334h-85l152 715h269q71 0 116.5 -36.5t45.5 -106.5zM359 390q38 0 69.5 14.5t54 39t35 56t12.5 65.5q0 45 -27.5 69.5t-83.5 24.5h-167l-57 -269h164z" />
    <glyph glyph-name="S" unicode="S" horiz-adv-x="580" 
d="M235 -9q-55 0 -94.5 10t-65.5 23q-30 14 -51 32l12 94q23 -27 55 -48q28 -20 67 -34t92 -14q79 0 128 38.5t49 107.5q0 42 -29.5 66.5t-80.5 44.5l-67 27q-58 23 -92.5 59.5t-34.5 98.5q0 53 20 95.5t56 72t85 45.5t107 16q54 0 91.5 -9.5t61.5 -21.5q27 -14 44 -31
l-11 -103q-19 28 -47 50q-26 20 -63 35t-90 15q-76 0 -122.5 -40.5t-46.5 -106.5q0 -37 23.5 -60t65.5 -39l67 -27q33 -13 60.5 -27.5t47.5 -34t31.5 -45t11.5 -59.5q0 -54 -22 -96.5t-60 -72t-89 -45.5t-109 -16z" />
    <glyph glyph-name="T" unicode="T" horiz-adv-x="602" 
d="M346 653h-217l17 62h509l-8 -62h-217l-139 -653h-84z" />
    <glyph glyph-name="U" unicode="U" horiz-adv-x="664" 
d="M279 -10q-54 0 -98 15.5t-72.5 47t-38.5 79t4 111.5l101 472h86l-100 -471q-21 -97 18.5 -142.5t122.5 -45.5q82 0 140 45.5t79 143.5l99 470h68l-100 -470q-27 -128 -109 -191.5t-200 -63.5z" />
    <glyph glyph-name="V" unicode="V" horiz-adv-x="646" 
d="M133 715h88l76 -619l332 619h84l-402 -715h-81z" />
    <glyph glyph-name="W" unicode="W" horiz-adv-x="928" 
d="M133 715h88l9 -607l309 607h56l49 -607l271 607h80l-341 -715h-82l-44 566l-289 -566h-82z" />
    <glyph glyph-name="X" unicode="X" horiz-adv-x="649" 
d="M301 361l-159 354h98l126 -295l245 295h89l-302 -349l161 -366h-98l-127 305l-258 -305h-90z" />
    <glyph glyph-name="Y" unicode="Y" horiz-adv-x="639" 
d="M295 327l-162 388h97l127 -322l261 322h88l-328 -385l-69 -330h-84z" />
    <glyph glyph-name="Z" unicode="Z" horiz-adv-x="602" 
d="M13 58l514 598h-386l17 59h474l-13 -59l-510 -598h406l-18 -58h-497z" />
    <glyph glyph-name="bracketleft" unicode="[" horiz-adv-x="313" 
d="M176 715h198l-5 -46h-131l-158 -746h131l-15 -46h-198z" />
    <glyph glyph-name="backslash" unicode="\" horiz-adv-x="437" 
d="M141 725h60l144 -735h-61z" />
    <glyph glyph-name="bracketright" unicode="]" horiz-adv-x="313" 
d="M-35 -77h130l159 746h-130l14 46h199l-178 -838h-199z" />
    <glyph glyph-name="asciicircum" unicode="^" 
d="M259 486h60l178 -432h-66l-141 361l-142 -361h-66z" />
    <glyph glyph-name="underscore" unicode="_" horiz-adv-x="491" 
d="M-65 -79h483l-13 -58h-482z" />
    <glyph glyph-name="grave" unicode="`" horiz-adv-x="510" 
d="M158 705h100l82 -143h-64z" />
    <glyph glyph-name="a" unicode="a" horiz-adv-x="553" 
d="M530 486l-104 -486h-72l17 83q-32 -42 -77 -67t-102 -25q-66 0 -104.5 40.5t-38.5 123.5q0 59 18 118.5t51.5 106.5t81.5 76.5t108 29.5q54 0 86.5 -23t46.5 -61l18 84h71zM224 54q29 0 56.5 12t51.5 35.5t42 58.5t28 80h1h-1q5 18 6.5 35t1.5 32q0 59 -28 88t-74 29
q-45 0 -78.5 -24t-55 -62.5t-32.5 -86t-11 -94.5q0 -103 93 -103z" />
    <glyph glyph-name="b" unicode="b" horiz-adv-x="552" 
d="M360 496q66 0 104.5 -41.5t38.5 -126.5q0 -60 -18 -120.5t-51.5 -108.5t-81.5 -78t-108 -30q-54 0 -85.5 22.5t-46.5 60.5v-2l-16 -72h-73l152 715h75l-66 -308q33 40 77 64.5t99 24.5zM244 54q45 0 78.5 24.5t55 64t32.5 88t11 96.5q0 105 -93 105q-28 0 -56 -12
t-51.5 -35.5t-42 -59t-28.5 -83.5h-1h1q-5 -19 -6.5 -36t-1.5 -32q0 -61 28 -90.5t74 -29.5z" />
    <glyph glyph-name="c" unicode="c" horiz-adv-x="470" 
d="M211 -9q-73 0 -118.5 42.5t-45.5 131.5q0 65 19.5 124.5t56.5 105t89 72.5t117 27q35 0 59.5 -6t39.5 -14q17 -9 28 -20l-7 -86q-13 18 -31 33q-17 13 -40.5 23t-56.5 10q-47 0 -82.5 -22.5t-59 -59.5t-35.5 -83.5t-12 -94.5q0 -61 29.5 -88t82.5 -27q33 0 59.5 5.5
t46.5 11.5q22 7 40 17l-22 -58q-17 -12 -40 -22q-21 -9 -49.5 -15.5t-67.5 -6.5z" />
    <glyph glyph-name="d" unicode="d" horiz-adv-x="551" 
d="M577 715l-152 -715h-72l15 82q-32 -41 -76 -66t-100 -25q-66 0 -104.5 41t-38.5 126q0 61 17.5 121.5t51 108.5t81.5 78t108 30q53 0 84.5 -22t46.5 -59l65 300h74zM224 55q57 0 107 47.5t70 142.5q5 19 6.5 36t1.5 32q0 60 -28 90t-74 30q-45 0 -78 -24.5t-55 -64
t-32.5 -88t-10.5 -96.5q0 -105 93 -105z" />
    <glyph glyph-name="e" unicode="e" horiz-adv-x="502" 
d="M135 222q-1 -10 -1.5 -19.5t-0.5 -19.5q0 -63 34.5 -93.5t100.5 -30.5q33 0 60 5.5t47 11.5q23 7 42 17l-22 -58q-17 -12 -41 -22q-22 -9 -51 -15.5t-67 -6.5q-87 0 -137 43.5t-50 136.5q0 63 18.5 121.5t53.5 103.5t85.5 71.5t113.5 26.5q69 0 108 -33t39 -90
q0 -65 -52.5 -107t-167.5 -42h-112zM311 440q-33 0 -59.5 -13.5t-47.5 -36t-36 -53t-24 -63.5h111q71 0 106 23.5t35 65.5q0 37 -21.5 57t-63.5 20z" />
    <glyph glyph-name="f" unicode="f" horiz-adv-x="356" 
d="M355 658q-34 0 -61 -20.5t-39 -74.5l-16 -77h143l-6 -51h-148l-93 -435h-77l93 435h-83l11 51h83l16 77q16 76 65.5 116t112.5 40q35 0 57 -9t23 -10l-8 -62q-8 6 -19 10q-10 4 -23.5 7t-30.5 3z" />
    <glyph glyph-name="g" unicode="g" horiz-adv-x="550" 
d="M526 486l-107 -504q-7 -35 -24 -68t-46.5 -58.5t-73.5 -41.5t-105 -16q-42 0 -72.5 9t-50.5 19q-23 13 -39 29v71q19 -17 45 -31q23 -12 54.5 -21t74.5 -9q67 0 108 30t53 86l24 114q-32 -38 -75.5 -61.5t-97.5 -23.5q-66 0 -105.5 40t-39.5 124q0 59 17.5 117
t50.5 103.5t80.5 73.5t107.5 28q54 0 86 -22.5t47 -59.5l14 72h74zM401 254q8 37 8 63q0 60 -29 88t-75 28q-44 0 -77 -23t-54.5 -59.5t-32 -82.5t-10.5 -93q0 -53 23.5 -77.5t70.5 -24.5q29 0 56 11t50.5 33.5t41.5 56.5t28 80z" />
    <glyph glyph-name="h" unicode="h" horiz-adv-x="531" 
d="M372 496q74 0 99.5 -41t10.5 -113l-73 -342h-77l71 331q9 45 -4 72t-61 27q-30 0 -59 -11t-53.5 -31.5t-42.5 -50t-26 -66.5l-58 -271h-76l152 715h76l-66 -309q35 42 83 66t104 24z" />
    <glyph glyph-name="i" unicode="i" horiz-adv-x="231" 
d="M173 705h80l-24 -111h-79zM127 486h79l-103 -486h-80z" />
    <glyph glyph-name="j" unicode="j" horiz-adv-x="230" 
d="M173 705h79l-23 -111h-79zM-68 -202q-14 0 -24.5 2.5t-17.5 4.5q-9 4 -15 8l6 54l12 -4q6 -1 13.5 -2t15.5 -1q35 0 58 21.5t34 70.5l113 534h78l-112 -529q-9 -42 -25.5 -72.5t-38 -49.5t-46.5 -28t-51 -9z" />
    <glyph glyph-name="k" unicode="k" horiz-adv-x="493" 
d="M294 301l123 -301h-85l-96 251l-102 -88l-34 -163h-77l152 715h76l-100 -473l267 244h91z" />
    <glyph glyph-name="l" unicode="l" horiz-adv-x="227" 
d="M175 715h77l-152 -715h-77z" />
    <glyph glyph-name="m" unicode="m" horiz-adv-x="798" 
d="M645 496q69 0 94.5 -41t9.5 -113l-73 -342h-76l71 331q8 45 -3 72t-56 27q-26 0 -51.5 -10t-47.5 -29t-39 -46t-26 -61l-60 -284h-76l71 331q8 45 -3 72t-56 27q-52 0 -97.5 -37.5t-65.5 -103.5l-61 -289h-77l104 486h72l-17 -81q32 42 77 66.5t98 24.5q54 0 81 -25
t29 -71q32 44 78 70t100 26z" />
    <glyph glyph-name="n" unicode="n" horiz-adv-x="532" 
d="M367 496q74 0 102 -41t13 -113l-73 -342h-77l71 331q9 45 -4 72t-61 27q-30 0 -58.5 -11t-53 -31.5t-42.5 -49.5t-26 -66l-58 -272h-77l104 486h72l-17 -82q34 42 81 67t104 25z" />
    <glyph glyph-name="o" unicode="o" horiz-adv-x="557" 
d="M229 -11q-80 0 -130 42.5t-50 131.5q0 66 19.5 126.5t56.5 106.5t89 73t118 27q81 0 128.5 -39.5t47.5 -127.5q0 -67 -18.5 -129t-54.5 -108.5t-88 -74.5t-118 -28zM239 44q48 0 84 25t59.5 65t35.5 90.5t12 100.5q0 61 -27.5 88.5t-78.5 27.5q-48 0 -84.5 -25t-61 -65
t-36.5 -89.5t-12 -99.5q0 -62 28.5 -90t80.5 -28z" />
    <glyph glyph-name="p" unicode="p" horiz-adv-x="551" 
d="M359 496q66 0 104.5 -41.5t38.5 -126.5q0 -60 -18 -120.5t-51.5 -108.5t-81.5 -78t-108 -30q-52 0 -83.5 21.5t-46.5 57.5l-56 -262h-75l145 678h72l-15 -72l-1 -8q32 41 76.5 65.5t99.5 24.5zM243 54q45 0 78 24.5t55 64t32.5 88t10.5 96.5q0 105 -92 105
q-55 0 -104 -44t-71 -133l-7 -33q-2 -14 -3 -25.5t-1 -22.5q0 -61 28 -90.5t74 -29.5z" />
    <glyph glyph-name="q" unicode="q" horiz-adv-x="550" 
d="M526 486l-145 -678h-74l57 270q-32 -39 -75.5 -63t-97.5 -24q-66 0 -104.5 41t-38.5 126q0 61 17.5 121.5t51 108.5t81.5 78t108 30q53 0 85 -22.5t46 -59.5l15 72h74zM223 55q56 0 104 44t70 133l7 32q2 14 3 26t1 23q0 60 -28 90t-74 30q-45 0 -78 -24.5t-55 -64
t-32.5 -88t-10.5 -96.5q0 -105 93 -105z" />
    <glyph glyph-name="r" unicode="r" horiz-adv-x="378" 
d="M365 496q11 0 21 -1q5 -1 9 -2l-17 -87q-5 2 -12 3q-6 1 -14 2t-18 1q-28 0 -56.5 -12t-53 -35t-44 -56t-30.5 -75l-50 -234h-77l104 486h73l-24 -118q38 58 88 93t101 35z" />
    <glyph glyph-name="s" unicode="s" horiz-adv-x="464" 
d="M177 -10q-42 0 -71.5 7t-48.5 16q-23 10 -38 23l9 82q17 -20 41 -36q21 -15 50 -25.5t68 -10.5q53 0 84 22.5t31 62.5q0 26 -17 42t-48 27l-51 18q-55 19 -82 46.5t-27 75.5q0 35 14.5 63.5t41.5 48.5t64.5 31t82.5 11q40 0 68 -5.5t46 -12.5q22 -8 36 -18l-7 -81
q-17 17 -40 31q-21 12 -48.5 21t-64.5 9q-50 0 -80 -23t-30 -62q0 -26 17.5 -42t47.5 -27l53 -19q54 -18 80.5 -45t26.5 -76q0 -35 -15.5 -63.5t-43 -48.5t-65.5 -31t-84 -11z" />
    <glyph glyph-name="t" unicode="t" horiz-adv-x="379" 
d="M159 138q-10 -45 5 -64.5t55 -19.5q18 0 34.5 4t28.5 9q15 6 27 13l-18 -57q-11 -9 -26 -16q-13 -7 -31.5 -12t-43.5 -5q-63 0 -93 36t-15 108l64 301h-81l10 51h82l31 147h76l-31 -147h151l-7 -51h-155z" />
    <glyph glyph-name="u" unicode="u" horiz-adv-x="531" 
d="M507 486l-103 -486h-73l18 83q-34 -43 -81.5 -68t-104.5 -25q-74 0 -101.5 41t-12.5 113l73 342h77l-71 -331q-9 -45 4 -72t61 -27q30 0 58.5 11t53 31.5t42.5 50t25 66.5h1l57 271h77z" />
    <glyph glyph-name="v" unicode="v" horiz-adv-x="488" 
d="M80 486h77l52 -397l221 397h79l-286 -486h-72z" />
    <glyph glyph-name="w" unicode="w" horiz-adv-x="725" 
d="M80 486h83l19 -391l211 391h52l41 -391l189 391h73l-253 -486h-73l-38 357l-194 -357h-73z" />
    <glyph glyph-name="x" unicode="x" horiz-adv-x="495" 
d="M201 243l-119 243h96l84 -191l166 191h87l-222 -237l121 -249h-89l-91 196l-170 -196h-88z" />
    <glyph glyph-name="y" unicode="y" horiz-adv-x="490" 
d="M4 -202q-12 0 -21.5 1.5t-16.5 3.5q-8 3 -15 6l7 70q7 -3 16 -6q8 -2 19 -3.5t26 -1.5q23 0 42 9t36 27t34 45t37 62l-88 475h85l65 -374l209 374h73l-315 -538q-47 -83 -92.5 -116.5t-100.5 -33.5z" />
    <glyph glyph-name="z" unicode="z" horiz-adv-x="480" 
d="M7 51l356 384h-270l16 51h361l-11 -51l-356 -384h293l-16 -51h-385z" />
    <glyph glyph-name="braceleft" unicode="{" horiz-adv-x="323" 
d="M258 -123q-34 0 -65 8t-54 25t-36.5 43t-13.5 62q0 27 8.5 50.5t19 45.5t19 43.5t8.5 44.5q0 24 -8.5 38.5t-22 23t-29.5 11.5t-30 3v41q15 0 31 3t29 11t21.5 22.5t8.5 38.5q0 23 -8.5 44.5t-19 43t-19 45.5t-8.5 52q0 36 13.5 62t36.5 43.5t53.5 25.5t65.5 8h25l5 -51
h-33q-41 0 -63.5 -15t-22.5 -57q0 -27 5.5 -48.5t12 -42.5t12 -42t5.5 -47q0 -48 -23.5 -76.5t-54.5 -40.5q31 -11 54.5 -40t23.5 -76q0 -26 -5.5 -47.5t-12 -41.5t-12 -41.5t-5.5 -47.5q0 -42 22 -58t64 -16h33l-5 -50h-25z" />
    <glyph glyph-name="bar" unicode="|" horiz-adv-x="310" 
d="M125 900h59v-1200h-59v1200z" />
    <glyph glyph-name="braceright" unicode="}" horiz-adv-x="323" 
d="M35 -73h33q42 0 64 16t22 58q0 26 -5.5 47.5t-12 41.5t-12 41.5t-5.5 47.5q0 47 23.5 76t54.5 40q-31 12 -54.5 40.5t-23.5 76.5q0 26 5.5 47t12 42t12 42.5t5.5 48.5q0 42 -22.5 57t-63.5 15h-33l5 51h25q35 0 65.5 -8t53.5 -25.5t36 -43.5t13 -62q0 -28 -8.5 -52
t-18.5 -45.5t-18.5 -43t-8.5 -44.5q0 -24 8.5 -38.5t21.5 -22.5t29 -11t31 -3v-41q-14 0 -30 -3t-29.5 -11.5t-22 -23t-8.5 -38.5q0 -23 8.5 -44.5t18.5 -43.5t18.5 -45.5t8.5 -50.5q0 -36 -13.5 -62t-36 -43t-53 -25t-65.5 -8h-25z" />
    <glyph glyph-name="asciitilde" unicode="~" 
d="M366 199q-33 0 -55 12t-40 26t-37 26t-46 12q-25 0 -45.5 -11t-36.5 -24q-18 -15 -33 -35l13 62q18 21 39 37q20 15 44 26t53 11q33 0 55.5 -11.5t41 -26t37.5 -26t45 -11.5q24 0 45 10.5t37 24.5q18 15 34 34l-13 -62q-18 -21 -40 -37q-20 -15 -44.5 -26t-53.5 -11z" />
    <glyph glyph-name="exclamdown" unicode="&#xa1;" horiz-adv-x="240" 
d="M129 487h78l-23 -113h-78zM89 258h63l-84 -450h-85z" />
    <glyph glyph-name="cent" unicode="&#xa2;" horiz-adv-x="508" 
d="M367 493q29 -2 49 -8t33 -13q14 -8 23 -18l-7 -86q-13 18 -31 33q-17 13 -40.5 23t-57.5 10q-47 0 -82.5 -22.5t-59.5 -59.5t-36 -83.5t-12 -94.5q0 -61 30 -88t83 -27q33 0 60 5.5t46 11.5q23 7 41 17l-22 -58q-13 -10 -32 -18q-16 -8 -38.5 -14.5t-53.5 -9.5l-27 -132
h-55l28 131q-65 5 -105 48t-40 125q0 61 17.5 117.5t50 100.5t79 73t104.5 36l29 131h53z" />
    <glyph glyph-name="sterling" unicode="&#xa3;" horiz-adv-x="578" 
d="M399 725q49 0 83 -8t55 -17q26 -12 42 -26l-8 -101q-18 25 -45 45q-25 18 -58.5 31t-81.5 13q-78 0 -119.5 -44.5t-41.5 -119.5q0 -49 16 -93.5t26 -91.5h189l-11 -55h-171v-6q0 -55 -24 -98t-64 -66q25 -4 45.5 -9t40.5 -9.5t41.5 -7.5t46.5 -3q33 0 54.5 11.5
t34.5 26.5t19 30.5t7 23.5l26 -29l-2 -11q-4 -21 -16.5 -42.5t-32 -39t-46.5 -28.5t-62 -11q-36 0 -65.5 7.5t-57.5 17t-59 17t-70 7.5q-20 0 -36 -2t-27 -5q-14 -3 -24 -7l11 51q11 5 25 9q12 3 28 5.5t36 2.5q48 0 75.5 37t27.5 91q0 19 -3 37h-149l12 55h123
q-14 42 -28.5 83t-14.5 91q0 53 19.5 96.5t53 75t80 49t100.5 17.5z" />
    <glyph glyph-name="yen" unicode="&#xa5;" 
d="M426 426h127l-12 -55h-157l-39 -49l-10 -49h186l-12 -55h-185l-46 -218h-80l45 218h-184l11 55h185l10 49l-17 49h-156l11 55h126l-100 289h93l103 -333l240 333h86z" />
    <glyph glyph-name="brokenbar" unicode="&#xa6;" horiz-adv-x="309" 
d="M125 900h59v-482h-59v482zM125 180h59v-480h-59v480z" />
    <glyph glyph-name="section" unicode="&#xa7;" 
d="M403 723q43 0 72.5 -7t48.5 -15q22 -10 36 -23l-7 -79q-16 19 -39 34q-21 14 -50 24t-70 10q-63 0 -99 -33.5t-36 -87.5q0 -38 24.5 -63.5t62.5 -50.5l63 -42q51 -32 78.5 -73t27.5 -91q0 -64 -34.5 -108t-91.5 -70q16 -29 16 -65q0 -42 -17 -76.5t-46.5 -58.5t-70 -37
t-88.5 -13q-43 0 -72.5 7t-48.5 15q-22 10 -36 23l8 79q15 -19 38 -34q21 -14 50 -24t70 -10q64 0 100 33.5t36 87.5q0 38 -25 63.5t-63 50.5l-63 42q-51 32 -78.5 73t-27.5 91q0 64 34.5 108t91.5 70q-16 32 -16 65q0 42 17 76.5t46.5 58.5t70 37t88.5 13zM293 378
q-46 29 -76 65q-35 -17 -55.5 -54.5t-20.5 -74.5q0 -38 23 -69.5t68 -61.5l62 -39q23 -16 42 -32.5t33 -33.5q36 17 56 54.5t20 74.5q0 38 -22.5 69.5t-68.5 61.5z" />
    <glyph glyph-name="dieresis" unicode="&#xa8;" horiz-adv-x="510" 
d="M189 705h75l-24 -111h-75zM337 705h75l-23 -111h-75z" />
    <glyph glyph-name="copyright" unicode="&#xa9;" horiz-adv-x="939" 
d="M470 -36q-83 0 -155.5 28.5t-126 79t-84 120.5t-30.5 152t30 151.5t83 120.5t125 80t156 29q83 0 155.5 -28.5t126 -79t84.5 -120t31 -151.5t-30 -152t-83.5 -121t-125.5 -80t-156 -29zM472 13q71 0 132 25.5t106 70t71 105t26 131.5q0 75 -27 136t-73.5 104t-108.5 66.5
t-132 23.5q-71 0 -132 -25t-106 -69.5t-70.5 -105t-25.5 -131.5q0 -76 27 -137t73 -104t108 -66.5t132 -23.5zM472 127q-40 0 -74 12.5t-59.5 39t-40 68t-14.5 98.5q0 55 16 96.5t43 69t63.5 41.5t77.5 14q32 0 55.5 -5.5t38.5 -11.5q18 -8 30 -18l9 -74q-15 16 -35 28
q-18 11 -41 19.5t-54 8.5q-60 0 -94 -38t-34 -126q0 -87 36 -125t96 -38q30 0 53 4.5t40 10.5q19 7 33 15l-9 -51q-13 -11 -33 -19q-18 -8 -43 -13.5t-60 -5.5z" />
    <glyph glyph-name="ordfeminine" unicode="&#xaa;" horiz-adv-x="487" 
d="M220 359q-38 0 -59 21.5t-21 53.5q0 39 20 64t53.5 41t78.5 23.5t96 11.5l7 32q5 34 -8 50t-50 16q-29 0 -54 -6.5t-43 -14.5q-22 -10 -41 -22l14 54q18 12 40 21q20 9 44.5 15t55.5 6q64 0 88 -32t12 -90l-50 -237h-58l10 47q-6 -6 -17.5 -15.5t-28.5 -18t-39 -14.5
t-50 -6zM247 408q48 0 82.5 28t45.5 75l5 23q-32 -3 -63 -8t-55.5 -15t-39.5 -27t-15 -44q0 -32 40 -32z" />
    <glyph glyph-name="guillemotleft" unicode="&#xab;" horiz-adv-x="471" 
d="M58 271l225 223l16 -39l-155 -184l76 -187l-31 -36zM211 271l233 203l16 -37l-165 -166l93 -169l-31 -34z" />
    <glyph glyph-name="logicalnot" unicode="&#xac;" 
d="M447 319h-374v58h433v-228h-59v170z" />
    <glyph glyph-name="registered" unicode="&#xae;" horiz-adv-x="950" 
d="M482 -36q-83 0 -155.5 28.5t-126 79t-84.5 120.5t-31 152t30 151.5t83.5 120.5t125.5 80t156 29q83 0 155.5 -28.5t126 -79t84 -120t30.5 -151.5t-30 -152t-83 -121t-125 -80t-156 -29zM484 13q71 0 132 25t106 69.5t70.5 105.5t25.5 132q0 75 -27 136t-73 104t-108 66.5
t-132 23.5q-71 0 -132.5 -25t-106.5 -69.5t-70.5 -105t-25.5 -131.5q0 -76 27 -137t73.5 -104t108.5 -66.5t132 -23.5zM336 561h187q66 0 101.5 -33t35.5 -84q0 -49 -29.5 -79.5t-79.5 -39.5l119 -185h-74l-111 179h-87v-179h-62v421zM513 361q42 0 62.5 23t20.5 59
q0 35 -21 56t-63 21h-114v-159h115z" />
    <glyph glyph-name="macron" unicode="&#xaf;" horiz-adv-x="510" 
d="M148 659h287l-8 -58h-297z" />
    <glyph glyph-name="degree" unicode="&#xb0;" horiz-adv-x="486" 
d="M305 406q-35 0 -65 11.5t-51.5 32.5t-33.5 50t-12 64q0 36 12 66t33.5 51t51.5 32.5t65 11.5t64 -11.5t50 -32.5t32.5 -50.5t11.5 -66.5q0 -35 -11.5 -64t-32.5 -50t-50 -32.5t-64 -11.5zM304 457q45 0 75 29.5t30 77.5q0 51 -30 81t-75 30q-46 0 -75.5 -30t-29.5 -81
q0 -48 29.5 -77.5t75.5 -29.5z" />
    <glyph glyph-name="plusminus" unicode="&#xb1;" 
d="M259 273h-186v59h186v163h59v-163h188v-59h-188v-158h-59v158zM73 58h433v-58h-433v58z" />
    <glyph glyph-name="uni00B2" unicode="&#xb2;" horiz-adv-x="299" 
d="M64 377q8 41 36.5 72t86.5 69l29 19q33 22 53.5 45t20.5 56q0 44 -51 44q-25 0 -46.5 -6.5t-37.5 -14.5q-20 -10 -36 -22l15 48q14 11 31 19q16 8 37 13.5t47 5.5q44 0 68.5 -21t24.5 -60q0 -46 -28 -78.5t-69 -57.5l-30 -19q-40 -26 -59.5 -44.5t-29.5 -33.5h175
l-11 -39h-228z" />
    <glyph glyph-name="uni00B3" unicode="&#xb3;" horiz-adv-x="300" 
d="M177 362q-27 0 -46 6t-31 13q-15 8 -24 19l4 48q11 -12 27 -21q14 -9 32.5 -15.5t43.5 -6.5q38 0 61 22.5t23 57.5q0 45 -51 45h-60l8 35h54q29 0 51.5 20.5t22.5 54.5q0 42 -50 42q-25 0 -47 -6.5t-38 -14.5q-20 -10 -36 -22l14 48q14 11 32 19q17 8 38 13.5t47 5.5
q45 0 69 -20.5t24 -55.5q0 -21 -7 -37t-17 -28t-21.5 -20.5t-20.5 -13.5q13 -6 27 -21t14 -44q0 -27 -11 -49.5t-30.5 -39t-45.5 -25.5t-56 -9z" />
    <glyph glyph-name="acute" unicode="&#xb4;" horiz-adv-x="510" 
d="M331 705h99l-155 -143h-64z" />
    <glyph glyph-name="paragraph" unicode="&#xb6;" horiz-adv-x="606" 
d="M348 305h-66q-51 0 -92.5 14t-71.5 40.5t-46.5 64t-16.5 84.5t16.5 85.5t46 65.5t70.5 41.5t91 14.5h260v-805h-62v756h-66v-756h-63v395zM348 355v310h-64q-72 0 -111 -41t-39 -114q0 -72 39.5 -113.5t110.5 -41.5h64z" />
    <glyph glyph-name="periodcentered" unicode="&#xb7;" horiz-adv-x="370" 
d="M164 326h78l-25 -114h-78z" />
    <glyph glyph-name="cedilla" unicode="&#xb8;" horiz-adv-x="510" 
d="M195 -205q-22 0 -37.5 3t-25.5 7q-12 4 -20 10v52q11 -10 24 -17t29 -12t36 -5q26 0 42 12t16 32q0 17 -13.5 23.5t-34.5 13.5l-36 11l64 82h42l-48 -59l21 -5q11 -2 23 -6t21.5 -10.5t15.5 -16t6 -24.5q0 -43 -34 -67t-91 -24z" />
    <glyph glyph-name="uni00B9" unicode="&#xb9;" horiz-adv-x="300" 
d="M68 412h94l54 248l-85 -45l14 46l99 54h36l-65 -303h85l-12 -39h-225z" />
    <glyph glyph-name="ordmasculine" unicode="&#xba;" horiz-adv-x="489" 
d="M271 358q-63 0 -96 34t-33 95q0 48 14 91.5t40.5 76t64.5 51.5t86 19q63 0 94.5 -32.5t31.5 -92.5q0 -49 -13.5 -93t-39 -77t-63.5 -52.5t-86 -19.5zM280 403q34 0 59 17.5t41.5 46t24.5 63.5t8 70q0 80 -74 80q-33 0 -58.5 -17.5t-42 -45.5t-25 -63t-8.5 -69
q0 -82 75 -82z" />
    <glyph glyph-name="guillemotright" unicode="&#xbb;" horiz-adv-x="471" 
d="M183 87l155 184l-76 187l31 36l132 -223l-226 -223zM22 105l165 166l-92 169l30 34l146 -203l-233 -203z" />
    <glyph glyph-name="onequarter" unicode="&#xbc;" horiz-adv-x="590" 
d="M71 412h85l52 248l-83 -45l13 46l99 54h35l-65 -303h75l-11 -39h-205zM532 715h58l-454 -715h-61zM422 86h-153l6 31l195 225h57l-46 -217h50l-8 -39h-50l-19 -86h-51zM430 125l33 151l-132 -151h99z" />
    <glyph glyph-name="onehalf" unicode="&#xbd;" horiz-adv-x="591" 
d="M521 715h59l-456 -715h-61zM71 412h85l52 248l-83 -45l13 46l99 54h35l-65 -303h75l-11 -39h-205zM280 5q8 41 37 72t86 69l29 19q33 22 53.5 45t20.5 56q0 44 -50 44q-25 0 -46.5 -6.5t-38.5 -14.5q-19 -10 -36 -22l15 48q14 11 31 19q16 8 37 13.5t47 5.5q44 0 69 -21
t25 -60q0 -46 -28.5 -78.5t-69.5 -57.5l-30 -19q-40 -26 -59.5 -44.5t-28.5 -33.5h174l-11 -39h-227z" />
    <glyph glyph-name="threequarters" unicode="&#xbe;" horiz-adv-x="590" 
d="M177 362q-27 0 -46 6t-31 13q-15 8 -24 19l4 48q11 -12 27 -21q14 -9 32.5 -15.5t43.5 -6.5q38 0 61 22.5t23 57.5q0 45 -51 45h-60l8 35h54q29 0 51.5 20.5t22.5 54.5q0 42 -50 42q-25 0 -47 -6.5t-38 -14.5q-20 -10 -36 -22l14 48q14 11 32 19q17 8 38 13.5t47 5.5
q45 0 69 -20.5t24 -55.5q0 -21 -7 -37t-17 -28t-21.5 -20.5t-20.5 -13.5q13 -6 27 -21t14 -44q0 -27 -11 -49.5t-30.5 -39t-45.5 -25.5t-56 -9zM539 715h59l-455 -715h-60zM422 86h-153l6 31l195 225h57l-46 -217h50l-8 -39h-50l-19 -86h-51zM430 125l33 151l-132 -151h99z
" />
    <glyph glyph-name="questiondown" unicode="&#xbf;" horiz-adv-x="420" 
d="M239 486h78l-25 -113h-78zM115 -202q-73 0 -109.5 35t-36.5 92q0 43 14.5 73t37 52.5t49.5 40.5t51.5 37.5t44 42.5t26.5 55l7 31h57v-13q0 -41 -15.5 -70.5t-39 -52t-51 -41t-51 -39t-39 -46t-15.5 -61.5q0 -33 21.5 -51.5t67.5 -18.5q39 0 72.5 9.5t58.5 21.5
q29 14 54 31l-21 -71q-23 -16 -51 -29q-26 -11 -59 -19.5t-73 -8.5z" />
    <glyph glyph-name="Agrave" unicode="&#xc0;" horiz-adv-x="670" 
d="M449 757l-118 143h100l82 -143h-64zM467 235h-275l-130 -235h-81l413 715h80l111 -715h-84zM459 287l-49 340l-189 -340h238z" />
    <glyph glyph-name="Aacute" unicode="&#xc1;" horiz-adv-x="670" 
d="M448 757h-64l120 143h99zM474 715l111 -715h-84l-34 235h-275l-130 -235h-81l413 715h80zM459 287l-49 340l-189 -340h238z" />
    <glyph glyph-name="Acircumflex" unicode="&#xc2;" horiz-adv-x="670" 
d="M316 749l-32 22l162 124h54l109 -124l-32 -22l-113 79zM474 715l111 -715h-84l-34 235h-275l-130 -235h-81l413 715h80zM459 287l-49 340l-189 -340h238z" />
    <glyph glyph-name="Atilde" unicode="&#xc3;" horiz-adv-x="670" 
d="M541 821q19 0 36 9t30.5 19.5t21.5 19.5t8 10l-18 -56q-14 -18 -30 -32q-16 -13 -34.5 -22.5t-41.5 -9.5q-27 0 -44 10.5t-30.5 23t-27.5 23t-35 10.5q-19 0 -36.5 -9t-31 -19.5t-21.5 -20t-8 -10.5l19 56q14 18 31 33q15 13 33.5 22.5t40.5 9.5q27 0 44 -10.5t31 -23
t28 -23t35 -10.5zM474 715l111 -715h-84l-34 235h-275l-130 -235h-81l413 715h80zM459 287l-49 340l-189 -340h238z" />
    <glyph glyph-name="Adieresis" unicode="&#xc4;" horiz-adv-x="670" 
d="M413 789h-75l24 111h75zM562 789h-75l23 111h75zM474 715l111 -715h-84l-34 235h-275l-130 -235h-81l413 715h80zM459 287l-49 340l-189 -340h238z" />
    <glyph glyph-name="Aring" unicode="&#xc5;" horiz-adv-x="670" 
d="M442 737q-35 0 -56 21t-21 54q0 48 32 80t83 32q34 0 54 -21.5t20 -54.5q0 -23 -8.5 -43t-23.5 -35t-35.5 -24t-44.5 -9zM472 879q-24 0 -41.5 -16t-17.5 -45q0 -16 10 -26t27 -10q23 0 40.5 17.5t17.5 44.5q0 17 -10 26t-26 9zM467 235h-275l-130 -235h-81l413 715h80
l111 -715h-84zM459 287l-49 340l-189 -340h238z" />
    <glyph glyph-name="AE" unicode="&#xc6;" horiz-adv-x="959" 
d="M660 653l-55 -259h289l-12 -55h-288l-59 -277h334l-18 -62h-414l59 274h-247l-187 -274h-86l500 715h524l-11 -62h-329zM577 654h-69l-223 -327h222z" />
    <glyph glyph-name="Ccedilla" unicode="&#xc7;" horiz-adv-x="644" 
d="M465 725q55 0 92.5 -9.5t61.5 -21.5q28 -14 45 -31l-10 -104q-18 28 -46 50q-25 20 -61.5 35t-89.5 15q-72 0 -127 -36t-92 -94t-55.5 -131.5t-18.5 -148.5q0 -50 13 -85t36 -57t56 -32t72 -10q47 0 87 9t70 21q35 12 63 29l-22 -63q-23 -18 -55 -33q-29 -14 -67 -24.5
t-89 -12.5l-35 -43l21 -5q11 -2 23 -6t21.5 -10.5t15.5 -16t6 -24.5q0 -43 -34 -67t-91 -24q-22 0 -37.5 3t-25.5 7q-12 4 -20 10v52q11 -10 24 -17t29 -12t36 -5q26 0 42 12t16 32q0 17 -13.5 23.5t-34.5 13.5l-36 11l52 67q-47 3 -86.5 20t-68 48t-44 76.5t-15.5 105.5
q0 93 27 180t78 154.5t123.5 108t163.5 40.5z" />
    <glyph glyph-name="Egrave" unicode="&#xc8;" horiz-adv-x="554" 
d="M286 900h100l82 -143h-64zM180 715h413l-8 -62h-333l-55 -259h290l-11 -55h-291l-59 -277h338l-20 -62h-416z" />
    <glyph glyph-name="Eacute" unicode="&#xc9;" horiz-adv-x="554" 
d="M459 900h99l-155 -143h-64zM180 715h413l-8 -62h-333l-55 -259h290l-11 -55h-291l-59 -277h338l-20 -62h-416z" />
    <glyph glyph-name="Ecircumflex" unicode="&#xca;" horiz-adv-x="554" 
d="M240 771l162 124h54l109 -124l-32 -22l-113 79l-148 -79zM180 715h413l-8 -62h-333l-55 -259h290l-11 -55h-291l-59 -277h338l-20 -62h-416z" />
    <glyph glyph-name="Edieresis" unicode="&#xcb;" horiz-adv-x="554" 
d="M317 900h75l-24 -111h-75zM465 900h75l-23 -111h-75zM180 715h413l-8 -62h-333l-55 -259h290l-11 -55h-291l-59 -277h338l-20 -62h-416z" />
    <glyph glyph-name="Igrave" unicode="&#xcc;" horiz-adv-x="245" 
d="M119 900h100l82 -143h-64zM180 715h85l-152 -715h-85z" />
    <glyph glyph-name="Iacute" unicode="&#xcd;" horiz-adv-x="245" 
d="M292 900h99l-155 -143h-64zM180 715h85l-152 -715h-85z" />
    <glyph glyph-name="Icircumflex" unicode="&#xce;" horiz-adv-x="245" 
d="M73 771l162 124h54l109 -124l-32 -22l-113 79l-148 -79zM180 715h85l-152 -715h-85z" />
    <glyph glyph-name="Idieresis" unicode="&#xcf;" horiz-adv-x="245" 
d="M150 900h75l-24 -111h-75zM298 900h75l-23 -111h-75zM180 715h85l-152 -715h-85z" />
    <glyph glyph-name="Eth" unicode="&#xd0;" horiz-adv-x="704" 
d="M417 715q58 0 106 -14.5t83 -44.5t54.5 -76.5t19.5 -111.5q0 -97 -29.5 -182.5t-84.5 -149t-133 -100t-175 -36.5h-210l72 338h-72l12 54h71l69 323h217zM263 58q79 0 139.5 34t102 90.5t62.5 130.5t21 153q0 101 -51.5 146.5t-140.5 45.5h-123l-57 -266h185l-11 -54
h-185l-60 -280h118z" />
    <glyph glyph-name="Ntilde" unicode="&#xd1;" horiz-adv-x="679" 
d="M521 759q-27 0 -44 10.5t-30.5 23t-27.5 23t-35 10.5q-19 0 -36.5 -9t-31 -19.5t-21.5 -20t-8 -10.5l19 56q14 18 31 33q15 13 33.5 22.5t40.5 9.5q27 0 44 -10.5t31 -23t28 -23t35 -10.5q19 0 36 9t30.5 19.5t21.5 19.5t8 10l-18 -56q-14 -18 -30 -32
q-16 -13 -34.5 -22.5t-41.5 -9.5zM180 715h101l225 -596l127 596h67l-152 -715h-89l-234 615l-131 -615h-66z" />
    <glyph glyph-name="Ograve" unicode="&#xd2;" horiz-adv-x="757" 
d="M375 900h100l82 -143h-64zM325 -10q-117 0 -184.5 63.5t-67.5 190.5q0 98 28 185t81 153t128.5 104.5t171.5 38.5q116 0 183.5 -61t67.5 -187q0 -98 -27.5 -186.5t-80 -155t-128.5 -106t-172 -39.5zM337 48q76 0 133.5 37.5t96.5 98.5t59 138.5t20 157.5
q0 98 -46.5 142.5t-131.5 44.5q-75 0 -132.5 -37.5t-96 -98t-58.5 -137.5t-20 -157q0 -98 46.5 -143.5t129.5 -45.5z" />
    <glyph glyph-name="Oacute" unicode="&#xd3;" horiz-adv-x="757" 
d="M548 900h99l-155 -143h-64zM325 -10q-117 0 -184.5 63.5t-67.5 190.5q0 98 28 185t81 153t128.5 104.5t171.5 38.5q116 0 183.5 -61t67.5 -187q0 -98 -27.5 -186.5t-80 -155t-128.5 -106t-172 -39.5zM337 48q76 0 133.5 37.5t96.5 98.5t59 138.5t20 157.5
q0 98 -46.5 142.5t-131.5 44.5q-75 0 -132.5 -37.5t-96 -98t-58.5 -137.5t-20 -157q0 -98 46.5 -143.5t129.5 -45.5z" />
    <glyph glyph-name="Ocircumflex" unicode="&#xd4;" horiz-adv-x="757" 
d="M329 771l162 124h54l109 -124l-32 -22l-113 79l-148 -79zM325 -10q-117 0 -184.5 63.5t-67.5 190.5q0 98 28 185t81 153t128.5 104.5t171.5 38.5q116 0 183.5 -61t67.5 -187q0 -98 -27.5 -186.5t-80 -155t-128.5 -106t-172 -39.5zM337 48q76 0 133.5 37.5t96.5 98.5
t59 138.5t20 157.5q0 98 -46.5 142.5t-131.5 44.5q-75 0 -132.5 -37.5t-96 -98t-58.5 -137.5t-20 -157q0 -98 46.5 -143.5t129.5 -45.5z" />
    <glyph glyph-name="Otilde" unicode="&#xd5;" horiz-adv-x="757" 
d="M557 759q-27 0 -44 10.5t-30.5 23t-27.5 23t-35 10.5q-19 0 -36.5 -9t-31 -19.5t-21.5 -20t-8 -10.5l19 56q14 18 31 33q15 13 33.5 22.5t40.5 9.5q27 0 44 -10.5t31 -23t28 -23t35 -10.5q19 0 36 9t30.5 19.5t21.5 19.5t8 10l-18 -56q-14 -18 -30 -32
q-16 -13 -34.5 -22.5t-41.5 -9.5zM325 -10q-117 0 -184.5 63.5t-67.5 190.5q0 98 28 185t81 153t128.5 104.5t171.5 38.5q116 0 183.5 -61t67.5 -187q0 -98 -27.5 -186.5t-80 -155t-128.5 -106t-172 -39.5zM337 48q76 0 133.5 37.5t96.5 98.5t59 138.5t20 157.5
q0 98 -46.5 142.5t-131.5 44.5q-75 0 -132.5 -37.5t-96 -98t-58.5 -137.5t-20 -157q0 -98 46.5 -143.5t129.5 -45.5z" />
    <glyph glyph-name="Odieresis" unicode="&#xd6;" horiz-adv-x="757" 
d="M406 900h75l-24 -111h-75zM554 900h75l-23 -111h-75zM325 -10q-117 0 -184.5 63.5t-67.5 190.5q0 98 28 185t81 153t128.5 104.5t171.5 38.5q116 0 183.5 -61t67.5 -187q0 -98 -27.5 -186.5t-80 -155t-128.5 -106t-172 -39.5zM337 48q76 0 133.5 37.5t96.5 98.5t59 138.5
t20 157.5q0 98 -46.5 142.5t-131.5 44.5q-75 0 -132.5 -37.5t-96 -98t-58.5 -137.5t-20 -157q0 -98 46.5 -143.5t129.5 -45.5z" />
    <glyph glyph-name="multiply" unicode="&#xd7;" 
d="M99 121l150 147l-150 148l42 42l148 -148l149 148l41 -41l-148 -148l148 -148l-41 -42l-149 148l-149 -148z" />
    <glyph glyph-name="Oslash" unicode="&#xd8;" horiz-adv-x="757" 
d="M651 677q40 -31 61 -80.5t21 -119.5q0 -98 -27.5 -186.5t-80 -155t-128.5 -106t-172 -39.5q-66 0 -114 19l-51 -76h-65l68 102q-44 31 -67 83t-23 126q0 98 28 185t81 153t128.5 104.5t171.5 38.5q72 0 123 -22l52 79h64zM161 237q0 -93 43 -139l363 548q-40 21 -99 21
q-75 0 -132.5 -37.5t-96 -98t-58.5 -137.5t-20 -157zM337 48q76 0 133.5 37.5t96.5 98.5t59 138.5t20 157.5q0 86 -38 132l-360 -546q38 -18 89 -18z" />
    <glyph glyph-name="Ugrave" unicode="&#xd9;" horiz-adv-x="664" 
d="M335 900h100l82 -143h-64zM279 -10q-54 0 -98 15.5t-72.5 47t-38.5 79t4 111.5l101 472h86l-100 -471q-21 -97 18.5 -142.5t122.5 -45.5q82 0 140 45.5t79 143.5l99 470h68l-100 -470q-27 -128 -109 -191.5t-200 -63.5z" />
    <glyph glyph-name="Uacute" unicode="&#xda;" horiz-adv-x="664" 
d="M508 900h99l-155 -143h-64zM279 -10q-54 0 -98 15.5t-72.5 47t-38.5 79t4 111.5l101 472h86l-100 -471q-21 -97 18.5 -142.5t122.5 -45.5q82 0 140 45.5t79 143.5l99 470h68l-100 -470q-27 -128 -109 -191.5t-200 -63.5z" />
    <glyph glyph-name="Ucircumflex" unicode="&#xdb;" horiz-adv-x="664" 
d="M289 771l162 124h54l109 -124l-32 -22l-113 79l-148 -79zM279 -10q-54 0 -98 15.5t-72.5 47t-38.5 79t4 111.5l101 472h86l-100 -471q-21 -97 18.5 -142.5t122.5 -45.5q82 0 140 45.5t79 143.5l99 470h68l-100 -470q-27 -128 -109 -191.5t-200 -63.5z" />
    <glyph glyph-name="Udieresis" unicode="&#xdc;" horiz-adv-x="664" 
d="M366 900h75l-24 -111h-75zM514 900h75l-23 -111h-75zM279 -10q-54 0 -98 15.5t-72.5 47t-38.5 79t4 111.5l101 472h86l-100 -471q-21 -97 18.5 -142.5t122.5 -45.5q82 0 140 45.5t79 143.5l99 470h68l-100 -470q-27 -128 -109 -191.5t-200 -63.5z" />
    <glyph glyph-name="Yacute" unicode="&#xdd;" horiz-adv-x="639" 
d="M493 900h99l-155 -143h-64zM295 327l-162 388h97l127 -322l261 322h88l-328 -385l-69 -330h-84z" />
    <glyph glyph-name="Thorn" unicode="&#xde;" horiz-adv-x="601" 
d="M180 715h85l-33 -152h187q70 0 112 -35.5t42 -103.5q0 -50 -17.5 -93.5t-48.5 -75t-74.5 -49.5t-94.5 -18h-185l-40 -188h-85zM336 245q38 0 67 14t49 38t30 56t10 68q0 86 -100 86h-172l-56 -262h172z" />
    <glyph glyph-name="germandbls" unicode="&#xdf;" horiz-adv-x="518" 
d="M267 -8q-29 0 -49.5 6t-33.5 13q-16 8 -26 19l9 65q11 -14 26 -24q14 -10 33.5 -17.5t46.5 -7.5q45 0 71.5 29.5t26.5 70.5q0 32 -19 51t-42 36t-42 36t-19 50q0 29 14.5 52t35.5 43t46.5 39t46.5 40.5t35.5 47t14.5 59.5q0 32 -20 50t-58 18q-56 0 -98 -39.5t-59 -116.5
l-108 -512h-76l106 499q10 48 33 89t55.5 71.5t73.5 48t88 17.5q67 0 103.5 -30.5t36.5 -82.5q0 -39 -15 -69t-37.5 -54t-49 -43t-49 -36.5t-37.5 -34t-15 -36.5q0 -23 21.5 -38t47 -32t47 -42t21.5 -69q0 -34 -15 -64t-40.5 -52.5t-59 -36t-71.5 -13.5z" />
    <glyph glyph-name="agrave" unicode="&#xe0;" horiz-adv-x="553" 
d="M343 562l-118 143h100l82 -143h-64zM530 486l-104 -486h-72l17 83q-32 -42 -77 -67t-102 -25q-66 0 -104.5 40.5t-38.5 123.5q0 59 18 118.5t51.5 106.5t81.5 76.5t108 29.5q54 0 86.5 -23t46.5 -61l18 84h71zM224 54q29 0 56.5 12t51.5 35.5t42 58.5t28 80h1h-1
q5 18 6.5 35t1.5 32q0 59 -28 88t-74 29q-45 0 -78.5 -24t-55 -62.5t-32.5 -86t-11 -94.5q0 -103 93 -103z" />
    <glyph glyph-name="aacute" unicode="&#xe1;" horiz-adv-x="553" 
d="M342 562h-64l120 143h99zM530 486l-104 -486h-72l17 83q-32 -42 -77 -67t-102 -25q-66 0 -104.5 40.5t-38.5 123.5q0 59 18 118.5t51.5 106.5t81.5 76.5t108 29.5q54 0 86.5 -23t46.5 -61l18 84h71zM224 54q29 0 56.5 12t51.5 35.5t42 58.5t28 80h1h-1q5 18 6.5 35
t1.5 32q0 59 -28 88t-74 29q-45 0 -78.5 -24t-55 -62.5t-32.5 -86t-11 -94.5q0 -103 93 -103z" />
    <glyph glyph-name="acircumflex" unicode="&#xe2;" horiz-adv-x="553" 
d="M211 554l-32 22l162 124h54l109 -124l-32 -22l-113 79zM530 486l-104 -486h-72l17 83q-32 -42 -77 -67t-102 -25q-66 0 -104.5 40.5t-38.5 123.5q0 59 18 118.5t51.5 106.5t81.5 76.5t108 29.5q54 0 86.5 -23t46.5 -61l18 84h71zM224 54q29 0 56.5 12t51.5 35.5t42 58.5
t28 80h1h-1q5 18 6.5 35t1.5 32q0 59 -28 88t-74 29q-45 0 -78.5 -24t-55 -62.5t-32.5 -86t-11 -94.5q0 -103 93 -103z" />
    <glyph glyph-name="atilde" unicode="&#xe3;" horiz-adv-x="553" 
d="M270 631q-19 0 -36.5 -9t-31 -19.5t-21.5 -20t-8 -10.5l19 56q14 18 31 33q15 13 33.5 22.5t40.5 9.5q27 0 44 -10.5t31 -23t28 -23t35 -10.5q19 0 36 9t30.5 19.5t21.5 19.5t8 10l-18 -56q-14 -18 -30 -32q-16 -13 -34.5 -22.5t-41.5 -9.5q-27 0 -44 10.5t-30.5 23
t-27.5 23t-35 10.5zM459 486h71l-104 -486h-72l17 83q-32 -42 -77 -67t-102 -25q-66 0 -104.5 40.5t-38.5 123.5q0 59 18 118.5t51.5 106.5t81.5 76.5t108 29.5q54 0 86.5 -23t46.5 -61zM224 54q29 0 56.5 12t51.5 35.5t42 58.5t28 80h1h-1q5 18 6.5 35t1.5 32q0 59 -28 88
t-74 29q-45 0 -78.5 -24t-55 -62.5t-32.5 -86t-11 -94.5q0 -103 93 -103z" />
    <glyph glyph-name="adieresis" unicode="&#xe4;" horiz-adv-x="553" 
d="M307 594h-75l24 111h75zM456 594h-75l23 111h75zM530 486l-104 -486h-72l17 83q-32 -42 -77 -67t-102 -25q-66 0 -104.5 40.5t-38.5 123.5q0 59 18 118.5t51.5 106.5t81.5 76.5t108 29.5q54 0 86.5 -23t46.5 -61l18 84h71zM224 54q29 0 56.5 12t51.5 35.5t42 58.5t28 80
h1h-1q5 18 6.5 35t1.5 32q0 59 -28 88t-74 29q-45 0 -78.5 -24t-55 -62.5t-32.5 -86t-11 -94.5q0 -103 93 -103z" />
    <glyph glyph-name="aring" unicode="&#xe5;" horiz-adv-x="553" 
d="M336 542q-35 0 -56 21t-21 54q0 48 32 80t83 32q34 0 54 -21.5t20 -54.5q0 -23 -8.5 -43t-23.5 -35t-35.5 -24t-44.5 -9zM366 684q-24 0 -41.5 -16t-17.5 -45q0 -16 10 -26t27 -10q23 0 40.5 17.5t17.5 44.5q0 17 -10 26t-26 9zM530 486l-104 -486h-72l17 83
q-32 -42 -77 -67t-102 -25q-66 0 -104.5 40.5t-38.5 123.5q0 59 18 118.5t51.5 106.5t81.5 76.5t108 29.5q54 0 86.5 -23t46.5 -61l18 84h71zM224 54q29 0 56.5 12t51.5 35.5t42 58.5t28 80h1h-1q5 18 6.5 35t1.5 32q0 59 -28 88t-74 29q-45 0 -78.5 -24t-55 -62.5
t-32.5 -86t-11 -94.5q0 -103 93 -103z" />
    <glyph glyph-name="ae" unicode="&#xe6;" horiz-adv-x="806" 
d="M440 222q-1 -10 -1.5 -19.5t-0.5 -19.5q0 -63 34.5 -93.5t100.5 -30.5q33 0 60 5.5t47 11.5q23 7 42 17l-22 -58q-18 -12 -41 -22q-22 -9 -51 -15.5t-68 -6.5q-70 0 -117 29t-63 91q-35 -56 -92 -88.5t-128 -32.5q-61 0 -89.5 30t-28.5 73q0 54 29 88.5t77 55.5t110.5 31
t129.5 15l10 49q18 98 -84 98q-40 0 -75.5 -9.5t-62.5 -21.5q-31 -14 -58 -31l24 70q25 16 55 29q28 12 62.5 20.5t76.5 8.5q57 0 90.5 -18.5t45.5 -52.5q34 32 77 50.5t96 18.5q69 0 108 -33t39 -90q0 -65 -52.5 -107t-167.5 -42h-112zM616 440q-33 0 -59.5 -13.5
t-47.5 -36t-36 -53t-24 -63.5h111q70 0 105 25t35 67q0 35 -21 54.5t-63 19.5zM164 52q37 0 68 11.5t55 31t40 46.5t22 57l9 38l1 -1v1h-1q-46 -4 -91 -11.5t-80.5 -21.5t-57 -38.5t-21.5 -63.5q0 -49 56 -49z" />
    <glyph glyph-name="ccedilla" unicode="&#xe7;" horiz-adv-x="470" 
d="M329 494q35 0 59.5 -6t39.5 -14q17 -9 28 -20l-7 -86q-13 18 -31 33q-17 13 -40.5 23t-56.5 10q-47 0 -82.5 -22.5t-59 -59.5t-35.5 -83.5t-12 -94.5q0 -61 29.5 -88t82.5 -27q33 0 59.5 5.5t46.5 11.5q22 7 40 17l-22 -58q-15 -11 -36 -20q-19 -9 -44.5 -15.5
t-60.5 -8.5l-35 -43l21 -5q11 -2 23 -6t21.5 -10.5t15.5 -16t6 -24.5q0 -43 -34 -67t-91 -24q-22 0 -37.5 3t-25.5 7q-12 4 -20 10v52q11 -10 24 -17t29 -12t36 -5q26 0 42 12t16 32q0 17 -13.5 23.5t-34.5 13.5l-36 11l53 67q-63 7 -101.5 49.5t-38.5 123.5
q0 65 19.5 124.5t56.5 105t89 72.5t117 27z" />
    <glyph glyph-name="egrave" unicode="&#xe8;" horiz-adv-x="502" 
d="M337 562l-118 143h100l82 -143h-64zM135 222q-1 -10 -1.5 -19.5t-0.5 -19.5q0 -63 34.5 -93.5t100.5 -30.5q33 0 60 5.5t47 11.5q23 7 42 17l-22 -58q-17 -12 -41 -22q-22 -9 -51 -15.5t-67 -6.5q-87 0 -137 43.5t-50 136.5q0 63 18.5 121.5t53.5 103.5t85.5 71.5
t113.5 26.5q69 0 108 -33t39 -90q0 -65 -52.5 -107t-167.5 -42h-112zM311 440q-33 0 -59.5 -13.5t-47.5 -36t-36 -53t-24 -63.5h111q71 0 106 23.5t35 65.5q0 37 -21.5 57t-63.5 20z" />
    <glyph glyph-name="eacute" unicode="&#xe9;" horiz-adv-x="502" 
d="M336 562h-64l120 143h99zM320 494q69 0 108 -33t39 -90q0 -65 -52.5 -107t-167.5 -42h-112q-1 -10 -1.5 -19.5t-0.5 -19.5q0 -63 34.5 -93.5t100.5 -30.5q33 0 60 5.5t47 11.5q23 7 42 17l-22 -58q-17 -12 -41 -22q-22 -9 -51 -15.5t-67 -6.5q-87 0 -137 43.5t-50 136.5
q0 63 18.5 121.5t53.5 103.5t85.5 71.5t113.5 26.5zM255 274q71 0 106 23.5t35 65.5q0 37 -21.5 57t-63.5 20q-33 0 -59.5 -13.5t-47.5 -36t-36 -53t-24 -63.5h111z" />
    <glyph glyph-name="ecircumflex" unicode="&#xea;" horiz-adv-x="502" 
d="M204 554l-32 22l162 124h54l109 -124l-32 -22l-113 79zM320 494q69 0 108 -33t39 -90q0 -65 -52.5 -107t-167.5 -42h-112q-1 -10 -1.5 -19.5t-0.5 -19.5q0 -63 34.5 -93.5t100.5 -30.5q33 0 60 5.5t47 11.5q23 7 42 17l-22 -58q-17 -12 -41 -22q-22 -9 -51 -15.5
t-67 -6.5q-87 0 -137 43.5t-50 136.5q0 63 18.5 121.5t53.5 103.5t85.5 71.5t113.5 26.5zM255 274q71 0 106 23.5t35 65.5q0 37 -21.5 57t-63.5 20q-33 0 -59.5 -13.5t-47.5 -36t-36 -53t-24 -63.5h111z" />
    <glyph glyph-name="edieresis" unicode="&#xeb;" horiz-adv-x="502" 
d="M301 594h-75l24 111h75zM450 594h-75l23 111h75zM320 494q69 0 108 -33t39 -90q0 -65 -52.5 -107t-167.5 -42h-112q-1 -10 -1.5 -19.5t-0.5 -19.5q0 -63 34.5 -93.5t100.5 -30.5q33 0 60 5.5t47 11.5q23 7 42 17l-22 -58q-17 -12 -41 -22q-22 -9 -51 -15.5t-67 -6.5
q-87 0 -137 43.5t-50 136.5q0 63 18.5 121.5t53.5 103.5t85.5 71.5t113.5 26.5zM255 274q71 0 106 23.5t35 65.5q0 37 -21.5 57t-63.5 20q-33 0 -59.5 -13.5t-47.5 -36t-36 -53t-24 -63.5h111z" />
    <glyph glyph-name="igrave" unicode="&#xec;" horiz-adv-x="230" 
d="M70 705h100l82 -143h-64zM127 486h79l-103 -486h-80z" />
    <glyph glyph-name="iacute" unicode="&#xed;" horiz-adv-x="230" 
d="M243 705h99l-155 -143h-64zM127 486h79l-103 -486h-80z" />
    <glyph glyph-name="icircumflex" unicode="&#xee;" horiz-adv-x="230" 
d="M24 576l162 124h54l109 -124l-32 -22l-113 79l-148 -79zM127 486h79l-103 -486h-80z" />
    <glyph glyph-name="idieresis" unicode="&#xef;" horiz-adv-x="230" 
d="M101 705h75l-24 -111h-75zM249 705h75l-23 -111h-75zM127 486h79l-103 -486h-80z" />
    <glyph glyph-name="eth" unicode="&#xf0;" horiz-adv-x="554" 
d="M571 665l-104 -50q23 -42 37 -94.5t14 -116.5q0 -80 -18.5 -155t-56 -132.5t-93.5 -92t-131 -34.5q-77 0 -124 45.5t-47 133.5q0 62 19.5 119.5t55.5 101.5t86.5 70.5t111.5 26.5q42 0 71.5 -14t47.5 -38q-2 41 -11 78t-26 72l-136 -65l13 61l98 46q-17 24 -38.5 46
t-49.5 42h89q31 -20 61 -59l144 69zM232 50q40 0 71.5 18t55 48.5t40 71.5t26.5 86q4 20 4 41q0 60 -33 86.5t-81 26.5q-46 0 -81 -23.5t-58.5 -61.5t-35 -85t-11.5 -95q0 -59 26.5 -86t76.5 -27z" />
    <glyph glyph-name="ntilde" unicode="&#xf1;" horiz-adv-x="532" 
d="M443 626q19 0 36 9t30.5 19.5t21.5 19.5t8 10l-18 -56q-14 -18 -30 -32q-16 -13 -34.5 -22.5t-41.5 -9.5q-27 0 -44 10.5t-30.5 23t-27.5 23t-35 10.5q-19 0 -36.5 -9t-31 -19.5t-21.5 -20t-8 -10.5l19 56q14 18 31 33q15 13 33.5 22.5t40.5 9.5q27 0 44 -10.5t31 -23
t28 -23t35 -10.5zM367 496q74 0 102 -41t13 -113l-73 -342h-77l71 331q9 45 -4 72t-61 27q-30 0 -58.5 -11t-53 -31.5t-42.5 -49.5t-26 -66l-58 -272h-77l104 486h72l-17 -82q34 42 81 67t104 25z" />
    <glyph glyph-name="ograve" unicode="&#xf2;" horiz-adv-x="557" 
d="M234 705h100l82 -143h-64zM229 -11q-80 0 -130 42.5t-50 131.5q0 66 19.5 126.5t56.5 106.5t89 73t118 27q81 0 128.5 -39.5t47.5 -127.5q0 -67 -18.5 -129t-54.5 -108.5t-88 -74.5t-118 -28zM239 44q48 0 84 25t59.5 65t35.5 90.5t12 100.5q0 61 -27.5 88.5t-78.5 27.5
q-48 0 -84.5 -25t-61 -65t-36.5 -89.5t-12 -99.5q0 -62 28.5 -90t80.5 -28z" />
    <glyph glyph-name="oacute" unicode="&#xf3;" horiz-adv-x="557" 
d="M407 705h99l-155 -143h-64zM229 -11q-80 0 -130 42.5t-50 131.5q0 66 19.5 126.5t56.5 106.5t89 73t118 27q81 0 128.5 -39.5t47.5 -127.5q0 -67 -18.5 -129t-54.5 -108.5t-88 -74.5t-118 -28zM239 44q48 0 84 25t59.5 65t35.5 90.5t12 100.5q0 61 -27.5 88.5t-78.5 27.5
q-48 0 -84.5 -25t-61 -65t-36.5 -89.5t-12 -99.5q0 -62 28.5 -90t80.5 -28z" />
    <glyph glyph-name="ocircumflex" unicode="&#xf4;" horiz-adv-x="557" 
d="M188 576l162 124h54l109 -124l-32 -22l-113 79l-148 -79zM229 -11q-80 0 -130 42.5t-50 131.5q0 66 19.5 126.5t56.5 106.5t89 73t118 27q81 0 128.5 -39.5t47.5 -127.5q0 -67 -18.5 -129t-54.5 -108.5t-88 -74.5t-118 -28zM239 44q48 0 84 25t59.5 65t35.5 90.5
t12 100.5q0 61 -27.5 88.5t-78.5 27.5q-48 0 -84.5 -25t-61 -65t-36.5 -89.5t-12 -99.5q0 -62 28.5 -90t80.5 -28z" />
    <glyph glyph-name="otilde" unicode="&#xf5;" horiz-adv-x="557" 
d="M416 564q-27 0 -44 10.5t-30.5 23t-27.5 23t-35 10.5q-19 0 -36.5 -9t-31 -19.5t-21.5 -20t-8 -10.5l19 56q14 18 31 33q15 13 33.5 22.5t40.5 9.5q27 0 44 -10.5t31 -23t28 -23t35 -10.5q19 0 36 9t30.5 19.5t21.5 19.5t8 10l-18 -56q-14 -18 -30 -32
q-16 -13 -34.5 -22.5t-41.5 -9.5zM229 -11q-80 0 -130 42.5t-50 131.5q0 66 19.5 126.5t56.5 106.5t89 73t118 27q81 0 128.5 -39.5t47.5 -127.5q0 -67 -18.5 -129t-54.5 -108.5t-88 -74.5t-118 -28zM239 44q48 0 84 25t59.5 65t35.5 90.5t12 100.5q0 61 -27.5 88.5
t-78.5 27.5q-48 0 -84.5 -25t-61 -65t-36.5 -89.5t-12 -99.5q0 -62 28.5 -90t80.5 -28z" />
    <glyph glyph-name="odieresis" unicode="&#xf6;" horiz-adv-x="557" 
d="M265 705h75l-24 -111h-75zM413 705h75l-23 -111h-75zM229 -11q-80 0 -130 42.5t-50 131.5q0 66 19.5 126.5t56.5 106.5t89 73t118 27q81 0 128.5 -39.5t47.5 -127.5q0 -67 -18.5 -129t-54.5 -108.5t-88 -74.5t-118 -28zM239 44q48 0 84 25t59.5 65t35.5 90.5t12 100.5
q0 61 -27.5 88.5t-78.5 27.5q-48 0 -84.5 -25t-61 -65t-36.5 -89.5t-12 -99.5q0 -62 28.5 -90t80.5 -28z" />
    <glyph glyph-name="divide" unicode="&#xf7;" 
d="M249 486h80v-111h-80v111zM73 298h433v-59h-433v59zM249 161h80v-112h-80v112z" />
    <glyph glyph-name="oslash" unicode="&#xf8;" horiz-adv-x="557" 
d="M460 457q23 -21 35.5 -52t12.5 -76q0 -67 -18.5 -129t-54.5 -108.5t-88 -74.5t-118 -28q-42 0 -77 12l-45 -67h-60l61 90q-59 43 -59 139q0 66 19.5 126.5t56.5 106.5t89 73t118 27q48 0 85 -14l46 69h61zM130 162q0 -47 19 -77l232 344q-24 12 -57 12q-48 0 -84.5 -25
t-61 -65t-36.5 -89.5t-12 -99.5zM239 44q48 0 84 25t59.5 65t35.5 90.5t12 100.5q0 41 -14 67l-228 -339q21 -9 51 -9z" />
    <glyph glyph-name="ugrave" unicode="&#xf9;" horiz-adv-x="531" 
d="M339 562l-118 143h100l82 -143h-64zM507 486l-103 -486h-73l18 83q-34 -43 -81.5 -68t-104.5 -25q-74 0 -101.5 41t-12.5 113l73 342h77l-71 -331q-9 -45 4 -72t61 -27q30 0 58.5 11t53 31.5t42.5 50t25 66.5h1l57 271h77z" />
    <glyph glyph-name="uacute" unicode="&#xfa;" horiz-adv-x="531" 
d="M338 562h-64l120 143h99zM507 486l-103 -486h-73l18 83q-34 -43 -81.5 -68t-104.5 -25q-74 0 -101.5 41t-12.5 113l73 342h77l-71 -331q-9 -45 4 -72t61 -27q30 0 58.5 11t53 31.5t42.5 50t25 66.5h1l57 271h77z" />
    <glyph glyph-name="ucircumflex" unicode="&#xfb;" horiz-adv-x="531" 
d="M206 554l-32 22l162 124h54l109 -124l-32 -22l-113 79zM507 486l-103 -486h-73l18 83q-34 -43 -81.5 -68t-104.5 -25q-74 0 -101.5 41t-12.5 113l73 342h77l-71 -331q-9 -45 4 -72t61 -27q30 0 58.5 11t53 31.5t42.5 50t25 66.5h1l57 271h77z" />
    <glyph glyph-name="udieresis" unicode="&#xfc;" horiz-adv-x="531" 
d="M303 594h-75l24 111h75zM452 594h-75l23 111h75zM507 486l-103 -486h-73l18 83q-34 -43 -81.5 -68t-104.5 -25q-74 0 -101.5 41t-12.5 113l73 342h77l-71 -331q-9 -45 4 -72t61 -27q30 0 58.5 11t53 31.5t42.5 50t25 66.5h1l57 271h77z" />
    <glyph glyph-name="yacute" unicode="&#xfd;" horiz-adv-x="490" 
d="M375 705h99l-155 -143h-64zM4 -202q-12 0 -21.5 1.5t-16.5 3.5q-8 3 -15 6l7 70q7 -3 16 -6q8 -2 19 -3.5t26 -1.5q23 0 42 9t36 27t34 45t37 62l-88 475h85l65 -374l209 374h73l-315 -538q-47 -83 -92.5 -116.5t-100.5 -33.5z" />
    <glyph glyph-name="thorn" unicode="&#xfe;" horiz-adv-x="551" 
d="M359 496q66 0 104.5 -41.5t38.5 -126.5q0 -60 -18 -120.5t-51.5 -108.5t-81.5 -78t-108 -30q-52 0 -83.5 21.5t-46.5 57.5l-56 -262h-75l193 907h75l-66 -307q33 40 77 64t98 24zM243 54q45 0 78 24.5t55 64t32.5 88t10.5 96.5q0 105 -92 105q-56 0 -104.5 -44
t-70.5 -134l-7 -31q-2 -14 -3 -26t-1 -23q0 -61 28 -90.5t74 -29.5z" />
    <glyph glyph-name="ydieresis" unicode="&#xff;" horiz-adv-x="490" 
d="M233 705h75l-24 -111h-75zM381 705h75l-23 -111h-75zM4 -202q-12 0 -21.5 1.5t-16.5 3.5q-8 3 -15 6l7 70q7 -3 16 -6q8 -2 19 -3.5t26 -1.5q23 0 42 9t36 27t34 45t37 62l-88 475h85l65 -374l209 374h73l-315 -538q-47 -83 -92.5 -116.5t-100.5 -33.5z" />
    <glyph glyph-name="Amacron" unicode="&#x100;" horiz-adv-x="670" 
d="M608 854l-8 -58h-297l18 58h287zM474 715l111 -715h-84l-34 235h-275l-130 -235h-81l413 715h80zM459 287l-49 340l-189 -340h238z" />
    <glyph glyph-name="amacron" unicode="&#x101;" horiz-adv-x="553" 
d="M494 601h-297l18 58h287zM530 486l-104 -486h-72l17 83q-32 -42 -77 -67t-102 -25q-66 0 -104.5 40.5t-38.5 123.5q0 59 18 118.5t51.5 106.5t81.5 76.5t108 29.5q54 0 86.5 -23t46.5 -61l18 84h71zM224 54q29 0 56.5 12t51.5 35.5t42 58.5t28 80h1h-1q5 18 6.5 35
t1.5 32q0 59 -28 88t-74 29q-45 0 -78.5 -24t-55 -62.5t-32.5 -86t-11 -94.5q0 -103 93 -103z" />
    <glyph glyph-name="Abreve" unicode="&#x102;" horiz-adv-x="670" 
d="M454 826q38 0 69.5 10.5t54.5 23.5q27 14 48 33l-17 -51q-19 -24 -44 -42q-23 -18 -53 -30.5t-68 -12.5q-39 0 -65 13t-41 30q-19 18 -29 42l6 51q12 -19 32 -33q17 -14 43 -24t64 -10zM474 715l111 -715h-84l-34 235h-275l-130 -235h-81l413 715h80zM459 287l-49 340
l-189 -340h238z" />
    <glyph glyph-name="abreve" unicode="&#x103;" horiz-adv-x="553" 
d="M338 562q-39 0 -65 13t-41 30q-19 18 -29 42l6 51q12 -19 32 -33q17 -14 43 -24t64 -10t69.5 10.5t54.5 23.5q27 14 48 33l-17 -51q-19 -24 -44 -42q-23 -18 -53 -30.5t-68 -12.5zM530 486l-104 -486h-72l17 83q-32 -42 -77 -67t-102 -25q-66 0 -104.5 40.5t-38.5 123.5
q0 59 18 118.5t51.5 106.5t81.5 76.5t108 29.5q54 0 86.5 -23t46.5 -61l18 84h71zM224 54q29 0 56.5 12t51.5 35.5t42 58.5t28 80h1h-1q5 18 6.5 35t1.5 32q0 59 -28 88t-74 29q-45 0 -78.5 -24t-55 -62.5t-32.5 -86t-11 -94.5q0 -103 93 -103z" />
    <glyph glyph-name="Aogonek" unicode="&#x104;" horiz-adv-x="670" 
d="M499 -159q20 0 36 3.5t27 8.5q13 5 23 12l-14 -48q-10 -6 -24 -10q-12 -4 -29.5 -7t-40.5 -3q-49 0 -73.5 20t-24.5 54q0 25 13 46.5t33.5 38t46 28t51.5 16.5h-22l-34 235h-275l-130 -235h-81l413 715h80l111 -715h-14q-25 -12 -47.5 -24t-39 -25.5t-26 -30.5t-9.5 -39
q0 -40 50 -40zM459 287l-49 340l-189 -340h238z" />
    <glyph glyph-name="aogonek" unicode="&#x105;" horiz-adv-x="553" 
d="M295 -119q0 -40 50 -40q20 0 36 3.5t27 8.5q13 5 23 12l-14 -48q-10 -6 -24 -10q-12 -4 -29.5 -7t-40.5 -3q-49 0 -73.5 20t-24.5 54q0 25 13 46.5t33.5 38t46 28t51.5 16.5h-15l17 83q-32 -42 -77 -67t-102 -25q-66 0 -104.5 40.5t-38.5 123.5q0 59 18 118.5t51.5 106.5
t81.5 76.5t108 29.5q54 0 86.5 -23t46.5 -61l18 84h71l-104 -486h-9q-25 -12 -47.5 -24t-39 -25.5t-26 -30.5t-9.5 -39zM224 54q29 0 56.5 12t51.5 35.5t42 58.5t28 80h1h-1q5 18 6.5 35t1.5 32q0 59 -28 88t-74 29q-45 0 -78.5 -24t-55 -62.5t-32.5 -86t-11 -94.5
q0 -103 93 -103z" />
    <glyph glyph-name="Cacute" unicode="&#x106;" horiz-adv-x="644" 
d="M532 900h99l-155 -143h-64zM313 -9q-52 0 -96.5 15t-76 46t-49.5 78.5t-18 111.5q0 93 27 180t78 154.5t123.5 108t163.5 40.5q55 0 92.5 -9.5t61.5 -21.5q28 -14 45 -31l-10 -104q-18 28 -46 50q-25 20 -61.5 35t-89.5 15q-72 0 -127 -36t-92 -94t-55.5 -131.5
t-18.5 -148.5q0 -50 13 -85t36 -57t56 -32t72 -10q47 0 87 9t70 21q35 12 63 29l-22 -63q-25 -20 -59 -35q-30 -14 -71 -24.5t-96 -10.5z" />
    <glyph glyph-name="cacute" unicode="&#x107;" horiz-adv-x="470" 
d="M395 705h99l-155 -143h-64zM211 -9q-73 0 -118.5 42.5t-45.5 131.5q0 65 19.5 124.5t56.5 105t89 72.5t117 27q35 0 59.5 -6t39.5 -14q17 -9 28 -20l-7 -86q-13 18 -31 33q-17 13 -40.5 23t-56.5 10q-47 0 -82.5 -22.5t-59 -59.5t-35.5 -83.5t-12 -94.5q0 -61 29.5 -88
t82.5 -27q33 0 59.5 5.5t46.5 11.5q22 7 40 17l-22 -58q-17 -12 -40 -22q-21 -9 -49.5 -15.5t-67.5 -6.5z" />
    <glyph glyph-name="Cdotaccent" unicode="&#x10a;" horiz-adv-x="644" 
d="M464 900h77l-23 -111h-78zM313 -9q-52 0 -96.5 15t-76 46t-49.5 78.5t-18 111.5q0 93 27 180t78 154.5t123.5 108t163.5 40.5q55 0 92.5 -9.5t61.5 -21.5q28 -14 45 -31l-10 -104q-18 28 -46 50q-25 20 -61.5 35t-89.5 15q-72 0 -127 -36t-92 -94t-55.5 -131.5
t-18.5 -148.5q0 -50 13 -85t36 -57t56 -32t72 -10q47 0 87 9t70 21q35 12 63 29l-22 -63q-25 -20 -59 -35q-30 -14 -71 -24.5t-96 -10.5z" />
    <glyph glyph-name="cdotaccent" unicode="&#x10b;" horiz-adv-x="470" 
d="M327 705h77l-23 -111h-78zM211 -9q-73 0 -118.5 42.5t-45.5 131.5q0 65 19.5 124.5t56.5 105t89 72.5t117 27q35 0 59.5 -6t39.5 -14q17 -9 28 -20l-7 -86q-13 18 -31 33q-17 13 -40.5 23t-56.5 10q-47 0 -82.5 -22.5t-59 -59.5t-35.5 -83.5t-12 -94.5q0 -61 29.5 -88
t82.5 -27q33 0 59.5 5.5t46.5 11.5q22 7 40 17l-22 -58q-17 -12 -40 -22q-21 -9 -49.5 -15.5t-67.5 -6.5z" />
    <glyph glyph-name="Ccaron" unicode="&#x10c;" horiz-adv-x="644" 
d="M336 876l32 22l113 -79l148 79l30 -22l-161 -125h-55zM313 -9q-52 0 -96.5 15t-76 46t-49.5 78.5t-18 111.5q0 93 27 180t78 154.5t123.5 108t163.5 40.5q55 0 92.5 -9.5t61.5 -21.5q28 -14 45 -31l-10 -104q-18 28 -46 50q-25 20 -61.5 35t-89.5 15q-72 0 -127 -36
t-92 -94t-55.5 -131.5t-18.5 -148.5q0 -50 13 -85t36 -57t56 -32t72 -10q47 0 87 9t70 21q35 12 63 29l-22 -63q-25 -20 -59 -35q-30 -14 -71 -24.5t-96 -10.5z" />
    <glyph glyph-name="ccaron" unicode="&#x10d;" horiz-adv-x="470" 
d="M199 681l32 22l113 -79l148 79l30 -22l-161 -125h-55zM211 -9q-73 0 -118.5 42.5t-45.5 131.5q0 65 19.5 124.5t56.5 105t89 72.5t117 27q35 0 59.5 -6t39.5 -14q17 -9 28 -20l-7 -86q-13 18 -31 33q-17 13 -40.5 23t-56.5 10q-47 0 -82.5 -22.5t-59 -59.5t-35.5 -83.5
t-12 -94.5q0 -61 29.5 -88t82.5 -27q33 0 59.5 5.5t46.5 11.5q22 7 40 17l-22 -58q-17 -12 -40 -22q-21 -9 -49.5 -15.5t-67.5 -6.5z" />
    <glyph glyph-name="Dcaron" unicode="&#x10e;" horiz-adv-x="685" 
d="M287 876l32 22l113 -79l148 79l30 -22l-161 -125h-55zM180 715h217q58 0 106 -14.5t83 -44.5t54.5 -76.5t19.5 -111.5q0 -97 -29.5 -182.5t-84.5 -149t-133 -100t-175 -36.5h-210zM243 58q79 0 139.5 34t102 90.5t63 130.5t21.5 153q0 101 -51 146.5t-142 45.5h-123
l-127 -600h117z" />
    <glyph glyph-name="dcaron" unicode="&#x10f;" horiz-adv-x="630" 
d="M742 725l-101 -215h-52l70 215h83zM503 715h74l-152 -715h-72l15 82q-32 -41 -76 -66t-100 -25q-66 0 -104.5 41t-38.5 126q0 61 17.5 121.5t51 108.5t81.5 78t108 30q53 0 84.5 -22t46.5 -59zM224 55q57 0 107 47.5t70 142.5q5 19 6.5 36t1.5 32q0 60 -28 90t-74 30
q-45 0 -78 -24.5t-55 -64t-32.5 -88t-10.5 -96.5q0 -105 93 -105z" />
    <glyph glyph-name="Dcroat" unicode="&#x110;" horiz-adv-x="704" 
d="M417 715q58 0 106 -14.5t83 -44.5t54.5 -76.5t19.5 -111.5q0 -97 -29.5 -182.5t-84.5 -149t-133 -100t-175 -36.5h-210l72 338h-72l12 54h71l69 323h217zM263 58q79 0 139.5 34t102 90.5t62.5 130.5t21 153q0 101 -51.5 146.5t-140.5 45.5h-123l-57 -266h185l-11 -54
h-185l-60 -280h118z" />
    <glyph glyph-name="dcroat" unicode="&#x111;" horiz-adv-x="551" 
d="M610 594h-59l-126 -594h-72l15 82q-32 -41 -76 -66t-100 -25q-66 0 -104.5 41t-38.5 126q0 61 17.5 121.5t51 108.5t81.5 78t108 30q53 0 84.5 -22t46.5 -59l38 179h-199l11 50h199l16 71h74l-15 -71h55zM224 55q57 0 107 47.5t70 142.5q5 19 6.5 36t1.5 32q0 60 -28 90
t-74 30q-45 0 -78 -24.5t-55 -64t-32.5 -88t-10.5 -96.5q0 -105 93 -105z" />
    <glyph glyph-name="Emacron" unicode="&#x112;" horiz-adv-x="554" 
d="M276 854h287l-8 -58h-297zM180 715h413l-8 -62h-333l-55 -259h290l-11 -55h-291l-59 -277h338l-20 -62h-416z" />
    <glyph glyph-name="emacron" unicode="&#x113;" horiz-adv-x="502" 
d="M496 659l-8 -58h-297l18 58h287zM320 494q69 0 108 -33t39 -90q0 -65 -52.5 -107t-167.5 -42h-112q-1 -10 -1.5 -19.5t-0.5 -19.5q0 -63 34.5 -93.5t100.5 -30.5q33 0 60 5.5t47 11.5q23 7 42 17l-22 -58q-17 -12 -41 -22q-22 -9 -51 -15.5t-67 -6.5q-87 0 -137 43.5
t-50 136.5q0 63 18.5 121.5t53.5 103.5t85.5 71.5t113.5 26.5zM255 274q71 0 106 23.5t35 65.5q0 37 -21.5 57t-63.5 20q-33 0 -59.5 -13.5t-47.5 -36t-36 -53t-24 -63.5h111z" />
    <glyph glyph-name="Edotaccent" unicode="&#x116;" horiz-adv-x="554" 
d="M391 900h77l-23 -111h-78zM180 715h413l-8 -62h-333l-55 -259h290l-11 -55h-291l-59 -277h338l-20 -62h-416z" />
    <glyph glyph-name="edotaccent" unicode="&#x117;" horiz-adv-x="502" 
d="M378 594h-78l24 111h77zM135 222q-1 -10 -1.5 -19.5t-0.5 -19.5q0 -63 34.5 -93.5t100.5 -30.5q33 0 60 5.5t47 11.5q23 7 42 17l-22 -58q-17 -12 -41 -22q-22 -9 -51 -15.5t-67 -6.5q-87 0 -137 43.5t-50 136.5q0 63 18.5 121.5t53.5 103.5t85.5 71.5t113.5 26.5
q69 0 108 -33t39 -90q0 -65 -52.5 -107t-167.5 -42h-112zM311 440q-33 0 -59.5 -13.5t-47.5 -36t-36 -53t-24 -63.5h111q71 0 106 23.5t35 65.5q0 37 -21.5 57t-63.5 20z" />
    <glyph glyph-name="Eogonek" unicode="&#x118;" horiz-adv-x="554" 
d="M252 653l-55 -259h290l-11 -55h-291l-59 -277h338l-20 -62h-17q-25 -12 -47.5 -24t-39 -25.5t-26 -30.5t-9.5 -39q0 -40 50 -40q20 0 36 3.5t27 8.5q13 5 23 12l-14 -48q-10 -6 -24 -10q-12 -4 -29.5 -7t-40.5 -3q-49 0 -73.5 20t-24.5 54q0 25 13 46.5t33.5 38t46 28
t51.5 16.5h-351l152 715h413l-8 -62h-333z" />
    <glyph glyph-name="eogonek" unicode="&#x119;" horiz-adv-x="502" 
d="M135 222q-1 -10 -1.5 -19.5t-0.5 -19.5q0 -63 34.5 -93.5t100.5 -30.5q33 0 60 5.5t47 11.5q23 7 42 17l-22 -58q-6 -4 -13 -8q-7 -5 -16.5 -9t-22.5 -9q-24 -12 -44.5 -23.5t-36 -25t-24 -29.5t-8.5 -37q0 -40 50 -40q20 0 36 3.5t27 8.5q13 5 23 12l-14 -48
q-10 -6 -24 -10q-12 -4 -29.5 -7t-40.5 -3q-49 0 -73.5 20t-24.5 54q0 35 23.5 62.5t56.5 44.5h-4q-87 0 -137 43.5t-50 136.5q0 63 18.5 121.5t53.5 103.5t85.5 71.5t113.5 26.5q69 0 108 -33t39 -90q0 -65 -52.5 -107t-167.5 -42h-112zM311 440q-33 0 -59.5 -13.5
t-47.5 -36t-36 -53t-24 -63.5h111q71 0 106 23.5t35 65.5q0 37 -21.5 57t-63.5 20z" />
    <glyph glyph-name="Ecaron" unicode="&#x11a;" horiz-adv-x="554" 
d="M263 876l32 22l113 -79l148 79l30 -22l-161 -125h-55zM180 715h413l-8 -62h-333l-55 -259h290l-11 -55h-291l-59 -277h338l-20 -62h-416z" />
    <glyph glyph-name="ecaron" unicode="&#x11b;" horiz-adv-x="502" 
d="M303 556l-107 125l32 22l113 -79l148 79l30 -22l-161 -125h-55zM320 494q69 0 108 -33t39 -90q0 -65 -52.5 -107t-167.5 -42h-112q-1 -10 -1.5 -19.5t-0.5 -19.5q0 -63 34.5 -93.5t100.5 -30.5q33 0 60 5.5t47 11.5q23 7 42 17l-22 -58q-17 -12 -41 -22q-22 -9 -51 -15.5
t-67 -6.5q-87 0 -137 43.5t-50 136.5q0 63 18.5 121.5t53.5 103.5t85.5 71.5t113.5 26.5zM255 274q71 0 106 23.5t35 65.5q0 37 -21.5 57t-63.5 20q-33 0 -59.5 -13.5t-47.5 -36t-36 -53t-24 -63.5h111z" />
    <glyph glyph-name="Gbreve" unicode="&#x11e;" horiz-adv-x="685" 
d="M481 757q-39 0 -65 13t-41 30q-19 18 -29 42l6 51q12 -19 32 -33q17 -14 43 -24t64 -10t69.5 10.5t54.5 23.5q27 14 48 33l-17 -51q-19 -24 -44 -42q-23 -18 -53 -30.5t-68 -12.5zM319 -9q-54 0 -99 15.5t-77.5 47t-50.5 80t-18 113.5q0 94 28 180.5t79.5 152.5
t125.5 105.5t167 39.5q59 0 98 -10.5t63 -23.5q28 -15 44 -34l-9 -98q-19 28 -48 50q-27 20 -65 35t-93 15q-74 0 -130.5 -35t-94.5 -92t-57.5 -129.5t-19.5 -147.5q0 -53 14 -90.5t39 -61t61 -34.5t79 -11q31 0 56 3t44 7q22 4 39 10l40 187h-148l11 57h229l-56 -265
q-28 -18 -66 -33q-35 -13 -80 -23t-105 -10z" />
    <glyph glyph-name="gbreve" unicode="&#x11f;" horiz-adv-x="550" 
d="M352 562q-39 0 -65 13t-41 30q-19 18 -29 42l6 51q12 -19 32 -33q17 -14 43 -24t64 -10t69.5 10.5t54.5 23.5q27 14 48 33l-17 -51q-19 -24 -44 -42q-23 -18 -53 -30.5t-68 -12.5zM452 486h74l-107 -504q-7 -35 -24 -68t-46.5 -58.5t-73.5 -41.5t-105 -16q-42 0 -72.5 9
t-50.5 19q-23 13 -39 29v71q19 -17 45 -31q23 -12 54.5 -21t74.5 -9q67 0 108 30t53 86l24 114q-32 -38 -75.5 -61.5t-97.5 -23.5q-66 0 -105.5 40t-39.5 124q0 59 17.5 117t50.5 103.5t80.5 73.5t107.5 28q54 0 86 -22.5t47 -59.5zM401 254q8 37 8 63q0 60 -29 88t-75 28
q-44 0 -77 -23t-54.5 -59.5t-32 -82.5t-10.5 -93q0 -53 23.5 -77.5t70.5 -24.5q29 0 56 11t50.5 33.5t41.5 56.5t28 80z" />
    <glyph glyph-name="Gdotaccent" unicode="&#x120;" horiz-adv-x="685" 
d="M473 900h77l-23 -111h-78zM319 -9q-54 0 -99 15.5t-77.5 47t-50.5 80t-18 113.5q0 94 28 180.5t79.5 152.5t125.5 105.5t167 39.5q59 0 98 -10.5t63 -23.5q28 -15 44 -34l-9 -98q-19 28 -48 50q-27 20 -65 35t-93 15q-74 0 -130.5 -35t-94.5 -92t-57.5 -129.5
t-19.5 -147.5q0 -53 14 -90.5t39 -61t61 -34.5t79 -11q31 0 56 3t44 7q22 4 39 10l40 187h-148l11 57h229l-56 -265q-28 -18 -66 -33q-35 -13 -80 -23t-105 -10z" />
    <glyph glyph-name="gdotaccent" unicode="&#x121;" horiz-adv-x="550" 
d="M398 594h-78l24 111h77zM526 486l-107 -504q-7 -35 -24 -68t-46.5 -58.5t-73.5 -41.5t-105 -16q-42 0 -72.5 9t-50.5 19q-23 13 -39 29v71q19 -17 45 -31q23 -12 54.5 -21t74.5 -9q67 0 108 30t53 86l24 114q-32 -38 -75.5 -61.5t-97.5 -23.5q-66 0 -105.5 40t-39.5 124
q0 59 17.5 117t50.5 103.5t80.5 73.5t107.5 28q54 0 86 -22.5t47 -59.5l14 72h74zM401 254q8 37 8 63q0 60 -29 88t-75 28q-44 0 -77 -23t-54.5 -59.5t-32 -82.5t-10.5 -93q0 -53 23.5 -77.5t70.5 -24.5q29 0 56 11t50.5 33.5t41.5 56.5t28 80z" />
    <glyph glyph-name="Gcommaaccent" unicode="&#x122;" horiz-adv-x="685" 
d="M319 -9q-54 0 -99 15.5t-77.5 47t-50.5 80t-18 113.5q0 94 28 180.5t79.5 152.5t125.5 105.5t167 39.5q59 0 98 -10.5t63 -23.5q28 -15 44 -34l-9 -98q-19 28 -48 50q-27 20 -65 35t-93 15q-74 0 -130.5 -35t-94.5 -92t-57.5 -129.5t-19.5 -147.5q0 -53 14 -90.5t39 -61
t61 -34.5t79 -11q31 0 56 3t44 7q22 4 39 10l40 187h-148l11 57h229l-56 -265q-28 -18 -66 -33q-35 -13 -80 -23t-105 -10zM261 -68h87l-91 -166h-55z" />
    <glyph glyph-name="gcommaaccent" unicode="&#x123;" horiz-adv-x="550" 
d="M397 582h-87l92 166h56zM526 486l-107 -504q-7 -35 -24 -68t-46.5 -58.5t-73.5 -41.5t-105 -16q-42 0 -72.5 9t-50.5 19q-23 13 -39 29v71q19 -17 45 -31q23 -12 54.5 -21t74.5 -9q67 0 108 30t53 86l24 114q-32 -38 -75.5 -61.5t-97.5 -23.5q-66 0 -105.5 40t-39.5 124
q0 59 17.5 117t50.5 103.5t80.5 73.5t107.5 28q54 0 86 -22.5t47 -59.5l14 72h74zM401 254q8 37 8 63q0 60 -29 88t-75 28q-44 0 -77 -23t-54.5 -59.5t-32 -82.5t-10.5 -93q0 -53 23.5 -77.5t70.5 -24.5q29 0 56 11t50.5 33.5t41.5 56.5t28 80z" />
    <glyph glyph-name="Hbar" unicode="&#x126;" horiz-adv-x="716" 
d="M755 542h-84l-115 -542h-86l71 338h-346l-72 -338h-84l115 542h-67l11 52h67l26 121h84l-26 -121h347l26 121h86l-26 -121h85zM585 542h-347l-31 -149h346z" />
    <glyph glyph-name="hbar" unicode="&#x127;" horiz-adv-x="532" 
d="M373 496q74 0 99.5 -41t10.5 -113l-73 -342h-77l71 331q9 45 -4 72t-61 27q-30 0 -59 -11t-53.5 -31.5t-42.5 -50t-26 -66.5l-58 -271h-76l126 593h-52l10 50h53l15 72h76l-15 -72h200l-6 -50h-205l-40 -187q35 42 83.5 66t103.5 24z" />
    <glyph glyph-name="Imacron" unicode="&#x12a;" horiz-adv-x="245" 
d="M109 854h287l-8 -58h-297zM180 715h85l-152 -715h-85z" />
    <glyph glyph-name="imacron" unicode="&#x12b;" horiz-adv-x="230" 
d="M60 659h287l-8 -58h-297zM127 486h79l-103 -486h-80z" />
    <glyph glyph-name="Iogonek" unicode="&#x12e;" horiz-adv-x="245" 
d="M-16 -119q0 -40 50 -40q20 0 36 3.5t27 8.5q13 5 23 12l-14 -48q-10 -6 -24 -10q-12 -4 -29.5 -7t-40.5 -3q-49 0 -73.5 20t-24.5 54q0 25 13 46.5t33.5 38t46 28t51.5 16.5h-30l152 715h85l-152 -715h-7q-25 -12 -47.5 -24t-39 -25.5t-26 -30.5t-9.5 -39z" />
    <glyph glyph-name="iogonek" unicode="&#x12f;" horiz-adv-x="230" 
d="M252 705l-23 -111h-78l24 111h77zM97 0q-25 -12 -47.5 -24t-39 -25.5t-26 -30.5t-9.5 -39q0 -40 50 -40q20 0 36 3.5t27 8.5q13 5 23 12l-14 -48q-10 -6 -24 -10q-12 -4 -29.5 -7t-40.5 -3q-49 0 -73.5 20t-24.5 54q0 25 13 46.5t33.5 38t46 28t51.5 16.5h-26l104 486h79
l-103 -486h-6z" />
    <glyph glyph-name="Idotaccent" unicode="&#x130;" horiz-adv-x="245" 
d="M224 900h77l-23 -111h-78zM180 715h85l-152 -715h-85z" />
    <glyph glyph-name="dotlessi" unicode="&#x131;" horiz-adv-x="230" 
d="M127 486h79l-103 -486h-80z" />
    <glyph glyph-name="IJ" unicode="&#x132;" horiz-adv-x="611" 
d="M180 715h85l-152 -715h-85zM329 -8q-23 0 -39.5 3.5t-27.5 7.5q-14 5 -23 11l5 67q10 -6 23 -10q13 -5 28.5 -8t36.5 -3q36 0 63.5 22.5t39.5 80.5l118 552h83l-117 -551q-10 -47 -30 -80t-45.5 -53.5t-55 -29.5t-59.5 -9z" />
    <glyph glyph-name="ij" unicode="&#x133;" horiz-adv-x="461" 
d="M173 705h80l-24 -111h-79zM404 705h79l-23 -111h-79zM163 -202q-14 0 -24.5 2.5t-17.5 4.5q-9 4 -15 8l6 54l12 -4q6 -1 13.5 -2t15.5 -1q35 0 58 21.5t34 70.5l113 534h78l-112 -529q-9 -42 -25.5 -72.5t-38 -49.5t-46.5 -28t-51 -9zM127 486h79l-103 -486h-80z" />
    <glyph glyph-name="Kcommaaccent" unicode="&#x136;" horiz-adv-x="635" 
d="M363 418l183 -418h-96l-153 358l-134 -122l-50 -236h-85l152 715h84l-80 -381l401 381h102zM215 -68h87l-91 -166h-55z" />
    <glyph glyph-name="kcommaaccent" unicode="&#x137;" horiz-adv-x="493" 
d="M294 301l123 -301h-85l-96 251l-102 -88l-34 -163h-77l152 715h76l-100 -473l267 244h91zM158 -68h87l-91 -166h-55z" />
    <glyph glyph-name="Lacute" unicode="&#x139;" horiz-adv-x="529" 
d="M435 900h99l-155 -143h-64zM180 715h86l-139 -653h321l-18 -62h-402z" />
    <glyph glyph-name="lacute" unicode="&#x13a;" horiz-adv-x="227" 
d="M283 900h99l-155 -143h-64zM175 715h77l-152 -715h-77z" />
    <glyph glyph-name="Lcommaaccent" unicode="&#x13b;" horiz-adv-x="529" 
d="M180 715h86l-139 -653h321l-18 -62h-402zM179 -68h87l-91 -166h-55z" />
    <glyph glyph-name="lcommaaccent" unicode="&#x13c;" horiz-adv-x="227" 
d="M175 715h77l-152 -715h-77zM7 -68h87l-91 -166h-56z" />
    <glyph glyph-name="Lcaron" unicode="&#x13d;" horiz-adv-x="529" 
d="M180 715h86l-139 -653h321l-18 -62h-402zM434 715h89l-110 -216h-57z" />
    <glyph glyph-name="lcaron" unicode="&#x13e;" horiz-adv-x="308" 
d="M336 725h83l-101 -215h-51zM175 715h77l-152 -715h-77z" />
    <glyph glyph-name="Ldot" unicode="&#x13f;" horiz-adv-x="529" 
d="M180 715h86l-139 -653h321l-18 -62h-402zM327 379h77l-23 -113h-78z" />
    <glyph glyph-name="ldot" unicode="&#x140;" horiz-adv-x="320" 
d="M175 715h77l-152 -715h-77zM256 377h77l-23 -113h-78z" />
    <glyph glyph-name="Lslash" unicode="&#x141;" horiz-adv-x="549" 
d="M468 62l-18 -62h-402l70 331l-78 -32l12 58l79 33l69 325h85l-61 -286l203 84l-12 -59l-203 -84l-66 -308h322z" />
    <glyph glyph-name="lslash" unicode="&#x142;" horiz-adv-x="238" 
d="M262 448l-76 -44l-86 -404h-76l75 353l-64 -37l12 62l65 38l64 299h76l-53 -248l76 44z" />
    <glyph glyph-name="Nacute" unicode="&#x143;" horiz-adv-x="679" 
d="M512 900h99l-155 -143h-64zM180 715h101l225 -596l127 596h67l-152 -715h-89l-234 615l-131 -615h-66z" />
    <glyph glyph-name="nacute" unicode="&#x144;" horiz-adv-x="532" 
d="M350 562h-64l120 143h99zM367 496q74 0 102 -41t13 -113l-73 -342h-77l71 331q9 45 -4 72t-61 27q-30 0 -58.5 -11t-53 -31.5t-42.5 -49.5t-26 -66l-58 -272h-77l104 486h72l-17 -82q34 42 81 67t104 25z" />
    <glyph glyph-name="Ncommaaccent" unicode="&#x145;" horiz-adv-x="679" 
d="M180 715h101l225 -596l127 596h67l-152 -715h-89l-234 615l-131 -615h-66zM234 -68h87l-91 -166h-55z" />
    <glyph glyph-name="ncommaaccent" unicode="&#x146;" horiz-adv-x="532" 
d="M367 496q74 0 102 -41t13 -113l-73 -342h-77l71 331q9 45 -4 72t-61 27q-30 0 -58.5 -11t-53 -31.5t-42.5 -49.5t-26 -66l-58 -272h-77l104 486h72l-17 -82q34 42 81 67t104 25zM162 -68h87l-91 -166h-55z" />
    <glyph glyph-name="Ncaron" unicode="&#x147;" horiz-adv-x="679" 
d="M316 876l32 22l113 -79l148 79l30 -22l-161 -125h-55zM180 715h101l225 -596l127 596h67l-152 -715h-89l-234 615l-131 -615h-66z" />
    <glyph glyph-name="ncaron" unicode="&#x148;" horiz-adv-x="532" 
d="M317 556l-107 125l32 22l113 -79l148 79l30 -22l-161 -125h-55zM367 496q74 0 102 -41t13 -113l-73 -342h-77l71 331q9 45 -4 72t-61 27q-30 0 -58.5 -11t-53 -31.5t-42.5 -49.5t-26 -66l-58 -272h-77l104 486h72l-17 -82q34 42 81 67t104 25z" />
    <glyph glyph-name="Eng" unicode="&#x14a;" horiz-adv-x="678" 
d="M384 -202q-14 0 -24.5 2.5t-18.5 4.5q-9 4 -15 8l5 49l12 -4q6 -1 13.5 -2t15.5 -1q35 0 60 21.5t36 69.5l12 54l-255 615l-131 -615h-66l152 715h103l228 -566l121 566h67l-163 -763q-17 -82 -59.5 -118t-92.5 -36z" />
    <glyph glyph-name="eng" unicode="&#x14b;" horiz-adv-x="531" 
d="M372 496q74 0 99.5 -41t10.5 -113l-82 -385q-9 -43 -25.5 -73t-38 -49t-46 -28t-49.5 -9q-14 0 -24.5 2.5t-18.5 4.5q-9 4 -15 8l6 54l12 -4q6 -1 13.5 -2t15.5 -1q35 0 58 21.5t34 69.5l81 380q9 45 -4 72t-61 27q-30 0 -58.5 -11t-53 -31.5t-42.5 -50t-26 -66.5
l-58 -271h-77l104 486h72l-18 -85q35 43 84.5 69t106.5 26z" />
    <glyph glyph-name="Omacron" unicode="&#x14c;" horiz-adv-x="757" 
d="M365 854h287l-8 -58h-297zM325 -10q-117 0 -184.5 63.5t-67.5 190.5q0 98 28 185t81 153t128.5 104.5t171.5 38.5q116 0 183.5 -61t67.5 -187q0 -98 -27.5 -186.5t-80 -155t-128.5 -106t-172 -39.5zM337 48q76 0 133.5 37.5t96.5 98.5t59 138.5t20 157.5
q0 98 -46.5 142.5t-131.5 44.5q-75 0 -132.5 -37.5t-96 -98t-58.5 -137.5t-20 -157q0 -98 46.5 -143.5t129.5 -45.5z" />
    <glyph glyph-name="omacron" unicode="&#x14d;" horiz-adv-x="557" 
d="M224 659h287l-8 -58h-297zM229 -11q-80 0 -130 42.5t-50 131.5q0 66 19.5 126.5t56.5 106.5t89 73t118 27q81 0 128.5 -39.5t47.5 -127.5q0 -67 -18.5 -129t-54.5 -108.5t-88 -74.5t-118 -28zM239 44q48 0 84 25t59.5 65t35.5 90.5t12 100.5q0 61 -27.5 88.5t-78.5 27.5
q-48 0 -84.5 -25t-61 -65t-36.5 -89.5t-12 -99.5q0 -62 28.5 -90t80.5 -28z" />
    <glyph glyph-name="Ohungarumlaut" unicode="&#x150;" horiz-adv-x="757" 
d="M492 900h85l-112 -143h-56zM637 900h90l-141 -143h-55zM325 -10q-117 0 -184.5 63.5t-67.5 190.5q0 98 28 185t81 153t128.5 104.5t171.5 38.5q116 0 183.5 -61t67.5 -187q0 -98 -27.5 -186.5t-80 -155t-128.5 -106t-172 -39.5zM337 48q76 0 133.5 37.5t96.5 98.5
t59 138.5t20 157.5q0 98 -46.5 142.5t-131.5 44.5q-75 0 -132.5 -37.5t-96 -98t-58.5 -137.5t-20 -157q0 -98 46.5 -143.5t129.5 -45.5z" />
    <glyph glyph-name="ohungarumlaut" unicode="&#x151;" horiz-adv-x="557" 
d="M351 705h85l-112 -143h-56zM496 705h90l-141 -143h-55zM229 -11q-80 0 -130 42.5t-50 131.5q0 66 19.5 126.5t56.5 106.5t89 73t118 27q81 0 128.5 -39.5t47.5 -127.5q0 -67 -18.5 -129t-54.5 -108.5t-88 -74.5t-118 -28zM239 44q48 0 84 25t59.5 65t35.5 90.5t12 100.5
q0 61 -27.5 88.5t-78.5 27.5q-48 0 -84.5 -25t-61 -65t-36.5 -89.5t-12 -99.5q0 -62 28.5 -90t80.5 -28z" />
    <glyph glyph-name="OE" unicode="&#x152;" horiz-adv-x="974" 
d="M356 0q-58 0 -106.5 15t-83.5 45.5t-54.5 78t-19.5 113.5q0 97 29.5 181.5t84 147t132 98.5t174.5 36h501l-7 -62h-334l-56 -259h291l-12 -55h-289l-60 -277h337l-19 -62h-508zM461 57l128 601h-84q-78 0 -138 -34t-101.5 -90.5t-62.5 -130t-21 -152.5q0 -101 52 -147.5
t142 -46.5h85z" />
    <glyph glyph-name="oe" unicode="&#x153;" horiz-adv-x="869" 
d="M503 222q-1 -10 -1.5 -19.5t-0.5 -19.5q0 -63 34.5 -93.5t100.5 -30.5q33 0 60 5.5t47 11.5q23 7 42 17l-22 -58q-17 -12 -41 -22q-22 -9 -51 -15.5t-67 -6.5q-63 0 -107.5 25t-63.5 78q-35 -48 -86.5 -76.5t-117.5 -28.5q-80 0 -130 42.5t-50 131.5q0 66 19.5 126.5
t56.5 106.5t89 73t118 27q60 0 102.5 -23.5t59.5 -74.5q35 44 83.5 70t110.5 26q69 0 108 -33t39 -90q0 -65 -52.5 -107t-167.5 -42h-112zM239 44q48 0 84 25t59.5 65t35.5 90.5t12 100.5q0 61 -27.5 88.5t-78.5 27.5q-48 0 -84.5 -25t-61 -65t-36.5 -89.5t-12 -99.5
q0 -62 28.5 -90t80.5 -28zM679 440q-33 0 -59.5 -13.5t-47.5 -36t-36 -53t-24 -63.5h111q71 0 106 23.5t35 65.5q0 37 -21.5 57t-63.5 20z" />
    <glyph glyph-name="Racute" unicode="&#x154;" horiz-adv-x="601" 
d="M414 757h-64l120 143h99zM611 572q0 -48 -17.5 -88.5t-48 -71t-72.5 -49.5t-90 -25l133 -338h-90l-129 334h-114l-70 -334h-85l152 715h269q71 0 116.5 -36.5t45.5 -106.5zM359 390q38 0 69.5 14.5t54 39t35 56t12.5 65.5q0 45 -27.5 69.5t-83.5 24.5h-167l-57 -269h164z
" />
    <glyph glyph-name="racute" unicode="&#x155;" horiz-adv-x="378" 
d="M282 562h-64l120 143h99zM176 368q38 58 88 93t101 35q11 0 21 -1q5 -1 9 -2l-17 -87q-5 2 -12 3q-6 1 -14 2t-18 1q-28 0 -56.5 -12t-53 -35t-44 -56t-30.5 -75l-50 -234h-77l104 486h73z" />
    <glyph glyph-name="Rcommaaccent" unicode="&#x156;" horiz-adv-x="601" 
d="M611 572q0 -48 -17.5 -88.5t-48 -71t-72.5 -49.5t-90 -25l133 -338h-90l-129 334h-114l-70 -334h-85l152 715h269q71 0 116.5 -36.5t45.5 -106.5zM359 390q38 0 69.5 14.5t54 39t35 56t12.5 65.5q0 45 -27.5 69.5t-83.5 24.5h-167l-57 -269h164zM203 -68h87l-91 -166h-55
z" />
    <glyph glyph-name="rcommaaccent" unicode="&#x157;" horiz-adv-x="378" 
d="M365 496q11 0 21 -1q5 -1 9 -2l-17 -87q-5 2 -12 3q-6 1 -14 2t-18 1q-28 0 -56.5 -12t-53 -35t-44 -56t-30.5 -75l-50 -234h-77l104 486h73l-24 -118q38 58 88 93t101 35zM7 -68h87l-91 -166h-56z" />
    <glyph glyph-name="Rcaron" unicode="&#x158;" horiz-adv-x="601" 
d="M381 751l-107 125l32 22l113 -79l148 79l30 -22l-161 -125h-55zM611 572q0 -48 -17.5 -88.5t-48 -71t-72.5 -49.5t-90 -25l133 -338h-90l-129 334h-114l-70 -334h-85l152 715h269q71 0 116.5 -36.5t45.5 -106.5zM359 390q38 0 69.5 14.5t54 39t35 56t12.5 65.5
q0 45 -27.5 69.5t-83.5 24.5h-167l-57 -269h164z" />
    <glyph glyph-name="rcaron" unicode="&#x159;" horiz-adv-x="378" 
d="M249 556l-107 125l32 22l113 -79l148 79l30 -22l-161 -125h-55zM176 368q38 58 88 93t101 35q11 0 21 -1q5 -1 9 -2l-17 -87q-5 2 -12 3q-6 1 -14 2t-18 1q-28 0 -56.5 -12t-53 -35t-44 -56t-30.5 -75l-50 -234h-77l104 486h73z" />
    <glyph glyph-name="Sacute" unicode="&#x15a;" horiz-adv-x="580" 
d="M464 900h99l-155 -143h-64zM235 -9q-55 0 -94.5 10t-65.5 23q-30 14 -51 32l12 94q23 -27 55 -48q28 -20 67 -34t92 -14q79 0 128 38.5t49 107.5q0 42 -29.5 66.5t-80.5 44.5l-67 27q-58 23 -92.5 59.5t-34.5 98.5q0 53 20 95.5t56 72t85 45.5t107 16q54 0 91.5 -9.5
t61.5 -21.5q27 -14 44 -31l-11 -103q-19 28 -47 50q-26 20 -63 35t-90 15q-76 0 -122.5 -40.5t-46.5 -106.5q0 -37 23.5 -60t65.5 -39l67 -27q33 -13 60.5 -27.5t47.5 -34t31.5 -45t11.5 -59.5q0 -54 -22 -96.5t-60 -72t-89 -45.5t-109 -16z" />
    <glyph glyph-name="sacute" unicode="&#x15b;" horiz-adv-x="464" 
d="M361 705h99l-155 -143h-64zM177 -10q-42 0 -71.5 7t-48.5 16q-23 10 -38 23l9 82q17 -20 41 -36q21 -15 50 -25.5t68 -10.5q53 0 84 22.5t31 62.5q0 26 -17 42t-48 27l-51 18q-55 19 -82 46.5t-27 75.5q0 35 14.5 63.5t41.5 48.5t64.5 31t82.5 11q40 0 68 -5.5t46 -12.5
q22 -8 36 -18l-7 -81q-17 17 -40 31q-21 12 -48.5 21t-64.5 9q-50 0 -80 -23t-30 -62q0 -26 17.5 -42t47.5 -27l53 -19q54 -18 80.5 -45t26.5 -76q0 -35 -15.5 -63.5t-43 -48.5t-65.5 -31t-84 -11z" />
    <glyph glyph-name="Scedilla" unicode="&#x15e;" horiz-adv-x="580" 
d="M391 725q54 0 91.5 -9.5t61.5 -21.5q27 -14 44 -31l-11 -103q-19 28 -47 50q-26 20 -63 35t-90 15q-76 0 -122.5 -40.5t-46.5 -106.5q0 -37 23.5 -60t65.5 -39l67 -27q33 -13 60.5 -27.5t47.5 -34t31.5 -45t11.5 -59.5q0 -51 -20.5 -92.5t-55.5 -71t-83 -46.5t-103 -20
l-35 -43l21 -5q11 -2 23 -6t21.5 -10.5t15.5 -16t6 -24.5q0 -43 -34 -67t-91 -24q-22 0 -37.5 3t-25.5 7q-12 4 -20 10v52q11 -10 24 -17t29 -12t36 -5q26 0 42 12t16 32q0 17 -13.5 23.5t-34.5 13.5l-36 11l52 67q-49 2 -84 12.5t-58 21.5q-28 14 -46 30l12 94
q23 -27 55 -48q28 -20 67 -34t92 -14q79 0 128 38.5t49 107.5q0 42 -29.5 66.5t-80.5 44.5l-67 27q-58 23 -92.5 59.5t-34.5 98.5q0 53 20 95.5t56 72t85 45.5t107 16z" />
    <glyph glyph-name="scedilla" unicode="&#x15f;" horiz-adv-x="464" 
d="M280 494q40 0 68 -5.5t46 -12.5q22 -8 36 -18l-7 -81q-17 17 -40 31q-21 12 -48.5 21t-64.5 9q-50 0 -80 -23t-30 -62q0 -26 17.5 -42t47.5 -27l53 -19q54 -18 80.5 -45t26.5 -76q0 -34 -14.5 -61.5t-40 -47.5t-61.5 -32t-79 -13l-34 -42l21 -5q11 -2 23 -6t21.5 -10.5
t15.5 -16t6 -24.5q0 -43 -34 -67t-91 -24q-22 0 -37.5 3t-25.5 7q-12 4 -20 10v52q11 -10 24 -17t29 -12t36 -5q26 0 42 12t16 32q0 17 -13.5 23.5t-34.5 13.5l-36 11l51 66q-34 3 -58.5 10t-40.5 15q-18 9 -31 20l9 82q17 -20 41 -36q21 -15 50 -25.5t68 -10.5
q53 0 84 22.5t31 62.5q0 26 -17 42t-48 27l-51 18q-55 19 -82 46.5t-27 75.5q0 35 14.5 63.5t41.5 48.5t64.5 31t82.5 11z" />
    <glyph glyph-name="Scaron" unicode="&#x160;" horiz-adv-x="580" 
d="M268 876l32 22l113 -79l148 79l30 -22l-161 -125h-55zM235 -9q-55 0 -94.5 10t-65.5 23q-30 14 -51 32l12 94q23 -27 55 -48q28 -20 67 -34t92 -14q79 0 128 38.5t49 107.5q0 42 -29.5 66.5t-80.5 44.5l-67 27q-58 23 -92.5 59.5t-34.5 98.5q0 53 20 95.5t56 72t85 45.5
t107 16q54 0 91.5 -9.5t61.5 -21.5q27 -14 44 -31l-11 -103q-19 28 -47 50q-26 20 -63 35t-90 15q-76 0 -122.5 -40.5t-46.5 -106.5q0 -37 23.5 -60t65.5 -39l67 -27q33 -13 60.5 -27.5t47.5 -34t31.5 -45t11.5 -59.5q0 -54 -22 -96.5t-60 -72t-89 -45.5t-109 -16z" />
    <glyph glyph-name="scaron" unicode="&#x161;" horiz-adv-x="464" 
d="M165 681l32 22l113 -79l148 79l30 -22l-161 -125h-55zM177 -10q-42 0 -71.5 7t-48.5 16q-23 10 -38 23l9 82q17 -20 41 -36q21 -15 50 -25.5t68 -10.5q53 0 84 22.5t31 62.5q0 26 -17 42t-48 27l-51 18q-55 19 -82 46.5t-27 75.5q0 35 14.5 63.5t41.5 48.5t64.5 31
t82.5 11q40 0 68 -5.5t46 -12.5q22 -8 36 -18l-7 -81q-17 17 -40 31q-21 12 -48.5 21t-64.5 9q-50 0 -80 -23t-30 -62q0 -26 17.5 -42t47.5 -27l53 -19q54 -18 80.5 -45t26.5 -76q0 -35 -15.5 -63.5t-43 -48.5t-65.5 -31t-84 -11z" />
    <glyph glyph-name="uni0162" unicode="&#x162;" horiz-adv-x="602" 
d="M655 715l-8 -62h-217l-139 -653h-21l-42 -52l21 -5q11 -2 23 -6t21.5 -10.5t15.5 -16t6 -24.5q0 -43 -34 -67t-91 -24q-22 0 -37.5 3t-25.5 7q-12 4 -20 10v52q11 -10 24 -17t29 -12t36 -5q26 0 42 12t16 32q0 17 -13.5 23.5t-34.5 13.5l-36 11l59 75h-22l139 653h-217
l17 62h509z" />
    <glyph glyph-name="uni0163" unicode="&#x163;" horiz-adv-x="379" 
d="M159 138q-10 -45 5 -64.5t55 -19.5q18 0 34.5 4t28.5 9q15 6 27 13l-18 -57q-11 -9 -26 -16q-13 -7 -31.5 -12t-43.5 -5h-2l-34 -42l21 -5q11 -2 23 -6t21.5 -10.5t15.5 -16t6 -24.5q0 -43 -34 -67t-91 -24q-22 0 -37.5 3t-25.5 7q-12 4 -20 10v52q11 -10 24 -17t29 -12
t36 -5q26 0 42 12t16 32q0 17 -13.5 23.5t-34.5 13.5l-36 11l54 69q-42 11 -61.5 45.5t-6.5 94.5l64 301h-81l10 51h82l31 147h76l-31 -147h151l-7 -51h-155z" />
    <glyph glyph-name="Tcaron" unicode="&#x164;" horiz-adv-x="602" 
d="M274 876l32 22l113 -79l148 79l30 -22l-161 -125h-55zM346 653h-217l17 62h509l-8 -62h-217l-139 -653h-84z" />
    <glyph glyph-name="tcaron" unicode="&#x165;" horiz-adv-x="379" 
d="M369 560h-55l52 165h86zM233 486h151l-7 -51h-155l-63 -297q-10 -45 5 -64.5t55 -19.5q18 0 34.5 4t28.5 9q15 6 27 13l-18 -57q-11 -9 -26 -16q-13 -7 -31.5 -12t-43.5 -5q-63 0 -93 36t-15 108l64 301h-81l10 51h82l31 147h76z" />
    <glyph glyph-name="Tbar" unicode="&#x166;" horiz-adv-x="590" 
d="M430 653l-55 -259h154l-12 -58h-155l-71 -336h-84l72 336h-155l11 58h156l55 259h-217l17 62h509l-8 -62h-217z" />
    <glyph glyph-name="tbar" unicode="&#x167;" horiz-adv-x="379" 
d="M222 435l-26 -121h152l-7 -51h-156l-26 -125q-10 -45 5 -64.5t55 -19.5q18 0 34.5 4t28.5 9q15 6 27 13l-18 -57q-11 -9 -26 -16q-13 -7 -31.5 -12t-43.5 -5q-63 0 -93 36t-15 108l27 129h-81l11 51h81l26 121h-81l10 51h82l31 147h76l-31 -147h151l-7 -51h-155z" />
    <glyph glyph-name="Umacron" unicode="&#x16a;" horiz-adv-x="664" 
d="M325 854h287l-8 -58h-297zM279 -10q-54 0 -98 15.5t-72.5 47t-38.5 79t4 111.5l101 472h86l-100 -471q-21 -97 18.5 -142.5t122.5 -45.5q82 0 140 45.5t79 143.5l99 470h68l-100 -470q-27 -128 -109 -191.5t-200 -63.5z" />
    <glyph glyph-name="umacron" unicode="&#x16b;" horiz-adv-x="531" 
d="M490 601h-297l18 58h287zM507 486l-103 -486h-73l18 83q-34 -43 -81.5 -68t-104.5 -25q-74 0 -101.5 41t-12.5 113l73 342h77l-71 -331q-9 -45 4 -72t61 -27q30 0 58.5 11t53 31.5t42.5 50t25 66.5h1l57 271h77z" />
    <glyph glyph-name="Uring" unicode="&#x16e;" horiz-adv-x="664" 
d="M446 737q-35 0 -56 21t-21 54q0 48 32 80t83 32q34 0 54 -21.5t20 -54.5q0 -23 -8.5 -43t-23.5 -35t-35.5 -24t-44.5 -9zM454 782q23 0 40.5 17.5t17.5 44.5q0 17 -10 26t-26 9q-24 0 -41.5 -16t-17.5 -45q0 -16 10 -26t27 -10zM279 -10q-54 0 -98 15.5t-72.5 47
t-38.5 79t4 111.5l101 472h86l-100 -471q-21 -97 18.5 -142.5t122.5 -45.5q82 0 140 45.5t79 143.5l99 470h68l-100 -470q-27 -128 -109 -191.5t-200 -63.5z" />
    <glyph glyph-name="uring" unicode="&#x16f;" horiz-adv-x="531" 
d="M332 542q-35 0 -56 21t-21 54q0 48 32 80t83 32q34 0 54 -21.5t20 -54.5q0 -23 -8.5 -43t-23.5 -35t-35.5 -24t-44.5 -9zM362 684q-24 0 -41.5 -16t-17.5 -45q0 -16 10 -26t27 -10q23 0 40.5 17.5t17.5 44.5q0 17 -10 26t-26 9zM507 486l-103 -486h-73l18 83
q-34 -43 -81.5 -68t-104.5 -25q-74 0 -101.5 41t-12.5 113l73 342h77l-71 -331q-9 -45 4 -72t61 -27q30 0 58.5 11t53 31.5t42.5 50t25 66.5h1l57 271h77z" />
    <glyph glyph-name="Uhungarumlaut" unicode="&#x170;" horiz-adv-x="664" 
d="M452 900h85l-112 -143h-56zM597 900h90l-141 -143h-55zM279 -10q-54 0 -98 15.5t-72.5 47t-38.5 79t4 111.5l101 472h86l-100 -471q-21 -97 18.5 -142.5t122.5 -45.5q82 0 140 45.5t79 143.5l99 470h68l-100 -470q-27 -128 -109 -191.5t-200 -63.5z" />
    <glyph glyph-name="uhungarumlaut" unicode="&#x171;" horiz-adv-x="531" 
d="M311 562h-56l83 143h85zM377 562l106 143h90l-141 -143h-55zM430 486h77l-103 -486h-73l18 83q-34 -43 -81.5 -68t-104.5 -25q-74 0 -101.5 41t-12.5 113l73 342h77l-71 -331q-9 -45 4 -72t61 -27q30 0 58.5 11t53 31.5t42.5 50t25 66.5h1z" />
    <glyph glyph-name="Uogonek" unicode="&#x172;" horiz-adv-x="664" 
d="M688 715l-100 -470q-20 -93 -69.5 -152t-121.5 -84q-38 -20 -61.5 -42.5t-23.5 -58.5q0 -40 50 -40q20 0 36 3.5t27 8.5q13 5 23 12l-14 -48q-10 -6 -24 -10q-12 -4 -29.5 -7t-40.5 -3q-49 0 -73.5 20t-24.5 54q0 28 16 51.5t40 40.5h-19q-54 0 -98 15.5t-72.5 47
t-38.5 79t4 111.5l101 472h86l-100 -471q-21 -97 18.5 -142.5t122.5 -45.5q82 0 140 45.5t79 143.5l99 470h68z" />
    <glyph glyph-name="uogonek" unicode="&#x173;" horiz-adv-x="531" 
d="M386 0q-25 -12 -47.5 -24t-39 -25.5t-26 -30.5t-9.5 -39q0 -40 50 -40q20 0 36 3.5t27 8.5q13 5 23 12l-14 -48q-10 -6 -24 -10q-12 -4 -29.5 -7t-40.5 -3q-49 0 -73.5 20t-24.5 54q0 25 13 46.5t33.5 38t46 28t51.5 16.5h-7l18 83q-34 -43 -81.5 -68t-104.5 -25
q-74 0 -101.5 41t-12.5 113l73 342h77l-71 -331q-9 -45 4 -72t61 -27q30 0 58.5 11t53 31.5t42.5 50t25 66.5h1l57 271h77l-103 -486h-18z" />
    <glyph glyph-name="Wcircumflex" unicode="&#x174;" horiz-adv-x="928" 
d="M418 771l162 124h54l109 -124l-32 -22l-113 79l-148 -79zM133 715h88l9 -607l309 607h56l49 -607l271 607h80l-341 -715h-82l-44 566l-289 -566h-82z" />
    <glyph glyph-name="wcircumflex" unicode="&#x175;" horiz-adv-x="725" 
d="M277 576l162 124h54l109 -124l-32 -22l-113 79l-148 -79zM80 486h83l19 -391l211 391h52l41 -391l189 391h73l-253 -486h-73l-38 357l-194 -357h-73z" />
    <glyph glyph-name="Ycircumflex" unicode="&#x176;" horiz-adv-x="639" 
d="M274 771l162 124h54l109 -124l-32 -22l-113 79l-148 -79zM295 327l-162 388h97l127 -322l261 322h88l-328 -385l-69 -330h-84z" />
    <glyph glyph-name="ycircumflex" unicode="&#x177;" horiz-adv-x="490" 
d="M156 576l162 124h54l109 -124l-32 -22l-113 79l-148 -79zM4 -202q-12 0 -21.5 1.5t-16.5 3.5q-8 3 -15 6l7 70q7 -3 16 -6q8 -2 19 -3.5t26 -1.5q23 0 42 9t36 27t34 45t37 62l-88 475h85l65 -374l209 374h73l-315 -538q-47 -83 -92.5 -116.5t-100.5 -33.5z" />
    <glyph glyph-name="Ydieresis" unicode="&#x178;" horiz-adv-x="639" 
d="M351 900h75l-24 -111h-75zM499 900h75l-23 -111h-75zM295 327l-162 388h97l127 -322l261 322h88l-328 -385l-69 -330h-84z" />
    <glyph glyph-name="Zacute" unicode="&#x179;" horiz-adv-x="602" 
d="M470 900h99l-155 -143h-64zM13 58l514 598h-386l17 59h474l-13 -59l-510 -598h406l-18 -58h-497z" />
    <glyph glyph-name="zacute" unicode="&#x17a;" horiz-adv-x="480" 
d="M371 705h99l-155 -143h-64zM7 51l356 384h-270l16 51h361l-11 -51l-356 -384h293l-16 -51h-385z" />
    <glyph glyph-name="Zdotaccent" unicode="&#x17b;" horiz-adv-x="602" 
d="M402 900h77l-23 -111h-78zM13 58l514 598h-386l17 59h474l-13 -59l-510 -598h406l-18 -58h-497z" />
    <glyph glyph-name="zdotaccent" unicode="&#x17c;" horiz-adv-x="480" 
d="M303 705h77l-23 -111h-78zM7 51l356 384h-270l16 51h361l-11 -51l-356 -384h293l-16 -51h-385z" />
    <glyph glyph-name="Zcaron" unicode="&#x17d;" horiz-adv-x="602" 
d="M274 876l32 22l113 -79l148 79l30 -22l-161 -125h-55zM13 58l514 598h-386l17 59h474l-13 -59l-510 -598h406l-18 -58h-497z" />
    <glyph glyph-name="zcaron" unicode="&#x17e;" horiz-adv-x="480" 
d="M175 681l32 22l113 -79l148 79l30 -22l-161 -125h-55zM7 51l356 384h-270l16 51h361l-11 -51l-356 -384h293l-16 -51h-385z" />
    <glyph glyph-name="florin" unicode="&#x192;" horiz-adv-x="479" 
d="M414 664q-40 0 -65.5 -22.5t-39.5 -90.5l-12 -65h136v-51h-147l-92 -467q-16 -81 -61.5 -125.5t-116.5 -44.5q-20 0 -35 4t-25 9q-12 6 -20 13v63q9 -8 21 -14q11 -6 25 -10t32 -4q39 0 65 22.5t39 90.5l93 463h-98l6 51h102l14 69q16 81 60.5 125.5t116.5 44.5
q21 0 36 -4t25 -9q11 -6 19 -13v-63q-9 8 -21 14q-10 6 -24.5 10t-32.5 4z" />
    <glyph glyph-name="Scommaaccent" unicode="&#x218;" horiz-adv-x="580" 
d="M235 -9q-55 0 -94.5 10t-65.5 23q-30 14 -51 32l12 94q23 -27 55 -48q28 -20 67 -34t92 -14q79 0 128 38.5t49 107.5q0 42 -29.5 66.5t-80.5 44.5l-67 27q-58 23 -92.5 59.5t-34.5 98.5q0 53 20 95.5t56 72t85 45.5t107 16q54 0 91.5 -9.5t61.5 -21.5q27 -14 44 -31
l-11 -103q-19 28 -47 50q-26 20 -63 35t-90 15q-76 0 -122.5 -40.5t-46.5 -106.5q0 -37 23.5 -60t65.5 -39l67 -27q33 -13 60.5 -27.5t47.5 -34t31.5 -45t11.5 -59.5q0 -54 -22 -96.5t-60 -72t-89 -45.5t-109 -16zM185 -68h87l-91 -166h-55z" />
    <glyph glyph-name="scommaaccent" unicode="&#x219;" horiz-adv-x="464" 
d="M177 -10q-42 0 -71.5 7t-48.5 16q-23 10 -38 23l9 82q17 -20 41 -36q21 -15 50 -25.5t68 -10.5q53 0 84 22.5t31 62.5q0 26 -17 42t-48 27l-51 18q-55 19 -82 46.5t-27 75.5q0 35 14.5 63.5t41.5 48.5t64.5 31t82.5 11q40 0 68 -5.5t46 -12.5q22 -8 36 -18l-7 -81
q-17 17 -40 31q-21 12 -48.5 21t-64.5 9q-50 0 -80 -23t-30 -62q0 -26 17.5 -42t47.5 -27l53 -19q54 -18 80.5 -45t26.5 -76q0 -35 -15.5 -63.5t-43 -48.5t-65.5 -31t-84 -11zM123 -68h87l-91 -166h-55z" />
    <glyph glyph-name="uni021A" unicode="&#x21a;" horiz-adv-x="602" 
d="M346 653h-217l17 62h509l-8 -62h-217l-139 -653h-84zM195 -68h87l-91 -166h-55z" />
    <glyph glyph-name="uni021B" unicode="&#x21b;" horiz-adv-x="379" 
d="M159 138q-10 -45 5 -64.5t55 -19.5q18 0 34.5 4t28.5 9q15 6 27 13l-18 -57q-11 -9 -26 -16q-13 -7 -31.5 -12t-43.5 -5q-63 0 -93 36t-15 108l64 301h-81l10 51h82l31 147h76l-31 -147h151l-7 -51h-155zM121 -68h87l-91 -166h-55z" />
    <glyph glyph-name="circumflex" unicode="&#x2c6;" horiz-adv-x="510" 
d="M112 576l162 124h54l109 -124l-32 -22l-113 79l-148 -79z" />
    <glyph glyph-name="caron" unicode="&#x2c7;" horiz-adv-x="510" 
d="M135 681l32 22l113 -79l148 79l30 -22l-161 -125h-55z" />
    <glyph glyph-name="breve" unicode="&#x2d8;" horiz-adv-x="510" 
d="M271 562q-39 0 -65 13t-41 30q-19 18 -29 42l6 51q12 -19 32 -33q17 -14 43 -24t64 -10t69.5 10.5t54.5 23.5q27 14 48 33l-17 -51q-19 -24 -44 -42q-23 -18 -53 -30.5t-68 -12.5z" />
    <glyph glyph-name="dotaccent" unicode="&#x2d9;" horiz-adv-x="510" 
d="M263 705h77l-23 -111h-78z" />
    <glyph glyph-name="ring" unicode="&#x2da;" horiz-adv-x="510" 
d="M269 542q-35 0 -56 21t-21 54q0 48 32 80t83 32q34 0 54 -21.5t20 -54.5q0 -23 -8.5 -43t-23.5 -35t-35.5 -24t-44.5 -9zM277 587q23 0 40.5 17.5t17.5 44.5q0 17 -10 26t-26 9q-24 0 -41.5 -16t-17.5 -45q0 -16 10 -26t27 -10z" />
    <glyph glyph-name="ogonek" unicode="&#x2db;" horiz-adv-x="510" 
d="M188 -203q-49 0 -73.5 20t-24.5 54q0 25 13.5 47t35 39t48 28.5t53.5 15.5l20 3l22 -4q-25 -12 -47.5 -24t-39 -25.5t-26 -30.5t-9.5 -39q0 -40 50 -40q20 0 36 3.5t27 8.5q13 5 23 12l-14 -48q-10 -6 -24 -10q-12 -4 -29.5 -7t-40.5 -3z" />
    <glyph glyph-name="tilde" unicode="&#x2dc;" horiz-adv-x="510" 
d="M340 564q-27 0 -44 10.5t-30.5 23t-27.5 23t-35 10.5q-19 0 -36.5 -9t-31 -19.5t-21.5 -20t-8 -10.5l19 56q14 18 31 33q15 13 33.5 22.5t40.5 9.5q27 0 44 -10.5t31 -23t28 -23t35 -10.5q19 0 36 9t30.5 19.5t21.5 19.5t8 10l-18 -56q-14 -18 -30 -32
q-16 -13 -34.5 -22.5t-41.5 -9.5z" />
    <glyph glyph-name="hungarumlaut" unicode="&#x2dd;" horiz-adv-x="510" 
d="M275 705h85l-112 -143h-56zM420 705h90l-141 -143h-55z" />
    <glyph glyph-name="gravecomb" unicode="&#x300;" horiz-adv-x="0" 
d="M-352 705h100l82 -143h-64z" />
    <glyph glyph-name="acutecomb" unicode="&#x301;" horiz-adv-x="0" 
d="M-179 705h99l-155 -143h-64z" />
    <glyph glyph-name="uni0302" unicode="&#x302;" horiz-adv-x="0" 
d="M-398 576l162 124h54l109 -124l-32 -22l-113 79l-148 -79z" />
    <glyph glyph-name="tildecomb" unicode="&#x303;" horiz-adv-x="0" 
d="M-170 564q-27 0 -44 10.5t-30.5 23t-27.5 23t-35 10.5q-19 0 -36.5 -9t-31 -19.5t-21.5 -20t-8 -10.5l19 56q14 18 31 33q15 13 33.5 22.5t40.5 9.5q27 0 44 -10.5t31 -23t28 -23t35 -10.5q19 0 36 9t30.5 19.5t21.5 19.5t8 10l-18 -56q-14 -18 -31 -32
q-15 -13 -33.5 -22.5t-41.5 -9.5z" />
    <glyph glyph-name="uni0304" unicode="&#x304;" horiz-adv-x="0" 
d="M-362 659h287l-8 -58h-297z" />
    <glyph glyph-name="uni0306" unicode="&#x306;" horiz-adv-x="0" 
d="M-239 562q-39 0 -65 13t-42 30q-18 18 -28 42l6 51q12 -19 32 -33q17 -14 43 -24t64 -10t69.5 10.5t54.5 23.5q27 14 48 33l-17 -51q-19 -24 -44 -42q-23 -18 -53 -30.5t-68 -12.5z" />
    <glyph glyph-name="uni0307" unicode="&#x307;" horiz-adv-x="0" 
d="M-247 705h77l-23 -111h-78z" />
    <glyph glyph-name="uni0308" unicode="&#x308;" horiz-adv-x="0" 
d="M-321 705h75l-24 -111h-75zM-173 705h75l-23 -111h-75z" />
    <glyph glyph-name="uni030A" unicode="&#x30a;" horiz-adv-x="0" 
d="M-241 542q-35 0 -56 21t-21 54q0 48 32 80t83 32q34 0 54 -21.5t20 -54.5q0 -23 -8.5 -43t-23.5 -35t-35.5 -24t-44.5 -9zM-233 587q23 0 40.5 17.5t17.5 44.5q0 17 -10 26t-26 9q-24 0 -41.5 -16t-17.5 -45q0 -16 10 -26t27 -10z" />
    <glyph glyph-name="uni030B" unicode="&#x30b;" horiz-adv-x="0" 
d="M-235 705h85l-112 -143h-56zM-90 705h90l-141 -143h-55z" />
    <glyph glyph-name="uni030C" unicode="&#x30c;" horiz-adv-x="0" 
d="M-375 681l32 22l113 -79l148 79l30 -22l-161 -125h-55z" />
    <glyph glyph-name="uni0326" unicode="&#x326;" horiz-adv-x="0" 
d="M-310 -68h87l-91 -166h-55z" />
    <glyph glyph-name="uni0327" unicode="&#x327;" horiz-adv-x="0" 
d="M-315 -205q-22 0 -37.5 3t-25.5 7q-12 4 -20 10v52q11 -10 24 -17t29 -12t36 -5q26 0 42 12t16 32q0 17 -13.5 23.5t-34.5 13.5l-36 11l64 82h42l-48 -59l21 -5q11 -2 23 -6t21.5 -10.5t15.5 -16t6 -24.5q0 -43 -34 -67t-91 -24z" />
    <glyph glyph-name="uni0328" unicode="&#x328;" horiz-adv-x="0" 
d="M-322 -203q-49 0 -73.5 20t-24.5 54q0 25 13.5 47t35 39t48 28.5t53.5 15.5l20 3l22 -4q-26 -12 -48 -24t-38.5 -25.5t-26 -30.5t-9.5 -39q0 -40 50 -40q20 0 36 3.5t27 8.5q13 5 23 12l-14 -48q-10 -6 -24 -10q-12 -4 -29.5 -7t-40.5 -3z" />
    <glyph glyph-name="uni0394" unicode="&#x394;" horiz-adv-x="602" 
d="M263 715h73l236 -715h-542zM474 54l-180 562l-178 -562h358z" />
    <glyph glyph-name="uni03A9" unicode="&#x3a9;" horiz-adv-x="779" 
d="M58 57h152q-15 13 -40.5 38.5t-49.5 64t-42 89.5t-18 116q0 88 25 155.5t69.5 113t105 68.5t132.5 23t132 -22t103.5 -67t68 -112.5t24.5 -158.5q0 -64 -18.5 -115t-44 -89.5t-51.5 -64.5t-41 -39h157l-6 -57h-294q24 14 59 42t67.5 72.5t56 106t23.5 142.5
q0 153 -64 227t-173 74t-173.5 -74.5t-64.5 -226.5q0 -81 23 -142.5t55.5 -106t67 -72.5t58.5 -42h-293z" />
    <glyph glyph-name="uni03BC" unicode="&#x3bc;" horiz-adv-x="553" 
d="M474 486v-486h-75v85q-27 -43 -72.5 -69t-105.5 -26q-39 0 -68 12v-194h-79v385v293h79v-331q0 -45 19.5 -72t70.5 -27q31 0 58.5 11t48.5 31.5t33 50t12 66.5v271h79z" />
    <glyph glyph-name="pi" unicode="&#x3c0;" horiz-adv-x="687" 
d="M526 -10q-65 0 -101 32.5t-36 104.5v308h-168v-435h-78v436h-99v50h582l3 -51h-161v-297q0 -45 19.5 -64.5t61.5 -19.5q19 0 35 4t28 9q14 6 26 13l-7 -57q-11 -9 -27 -16q-14 -7 -33 -12t-45 -5z" />
    <glyph glyph-name="Wgrave" unicode="&#x1e80;" horiz-adv-x="928" 
d="M465 900h100l82 -143h-64zM133 715h88l9 -607l309 607h56l49 -607l271 607h80l-341 -715h-82l-44 566l-289 -566h-82z" />
    <glyph glyph-name="wgrave" unicode="&#x1e81;" horiz-adv-x="725" 
d="M323 705h100l82 -143h-64zM80 486h83l19 -391l211 391h52l41 -391l189 391h73l-253 -486h-73l-38 357l-194 -357h-73z" />
    <glyph glyph-name="Wacute" unicode="&#x1e82;" horiz-adv-x="928" 
d="M638 900h99l-155 -143h-64zM133 715h88l9 -607l309 607h56l49 -607l271 607h80l-341 -715h-82l-44 566l-289 -566h-82z" />
    <glyph glyph-name="wacute" unicode="&#x1e83;" horiz-adv-x="725" 
d="M496 705h99l-155 -143h-64zM80 486h83l19 -391l211 391h52l41 -391l189 391h73l-253 -486h-73l-38 357l-194 -357h-73z" />
    <glyph glyph-name="Wdieresis" unicode="&#x1e84;" horiz-adv-x="928" 
d="M496 900h75l-24 -111h-75zM644 900h75l-23 -111h-75zM133 715h88l9 -607l309 607h56l49 -607l271 607h80l-341 -715h-82l-44 566l-289 -566h-82z" />
    <glyph glyph-name="wdieresis" unicode="&#x1e85;" horiz-adv-x="725" 
d="M354 705h75l-24 -111h-75zM502 705h75l-23 -111h-75zM80 486h83l19 -391l211 391h52l41 -391l189 391h73l-253 -486h-73l-38 357l-194 -357h-73z" />
    <glyph glyph-name="Ygrave" unicode="&#x1ef2;" horiz-adv-x="639" 
d="M320 900h100l82 -143h-64zM295 327l-162 388h97l127 -322l261 322h88l-328 -385l-69 -330h-84z" />
    <glyph glyph-name="ygrave" unicode="&#x1ef3;" horiz-adv-x="490" 
d="M202 705h100l82 -143h-64zM4 -202q-12 0 -21.5 1.5t-16.5 3.5q-8 3 -15 6l7 70q7 -3 16 -6q8 -2 19 -3.5t26 -1.5q23 0 42 9t36 27t34 45t37 62l-88 475h85l65 -374l209 374h73l-315 -538q-47 -83 -92.5 -116.5t-100.5 -33.5z" />
    <glyph glyph-name="endash" unicode="&#x2013;" 
d="M93 298h416l-12 -59h-417z" />
    <glyph glyph-name="emdash" unicode="&#x2014;" horiz-adv-x="792" 
d="M73 298h668l-13 -59h-667z" />
    <glyph glyph-name="quoteleft" unicode="&#x2018;" horiz-adv-x="232" 
d="M226 715h57l-94 -217h-88z" />
    <glyph glyph-name="quoteright" unicode="&#x2019;" horiz-adv-x="232" 
d="M196 715l89 -1l-126 -216h-57z" />
    <glyph glyph-name="quotesinglbase" unicode="&#x201a;" horiz-adv-x="232" 
d="M62 101h90l-124 -216h-60z" />
    <glyph glyph-name="quotedblleft" unicode="&#x201c;" horiz-adv-x="380" 
d="M227 715h58l-94 -216h-89zM367 715h57l-94 -217h-87z" />
    <glyph glyph-name="quotedblright" unicode="&#x201d;" horiz-adv-x="380" 
d="M198 715h88l-125 -217h-57zM338 715h89l-125 -217h-58z" />
    <glyph glyph-name="quotedblbase" unicode="&#x201e;" horiz-adv-x="370" 
d="M58 101h88l-126 -216h-57zM198 101h88l-125 -216h-57z" />
    <glyph glyph-name="dagger" unicode="&#x2020;" 
d="M307 430l-204 -18l17 78l195 -17l33 242h81l-70 -242l205 17l-17 -78l-198 18l-115 -622h-77z" />
    <glyph glyph-name="daggerdbl" unicode="&#x2021;" 
d="M226 52l-203 -19l16 80l196 -18l22 167l49 166l-203 -18l16 80l196 -19l33 244h81l-70 -244l205 19l-17 -80l-198 18l-22 -166l-49 -167l206 18l-17 -80l-197 19l-34 -244h-81z" />
    <glyph glyph-name="bullet" unicode="&#x2022;" horiz-adv-x="420" 
d="M210 152q-53 0 -84.5 32t-31.5 84q0 54 33 86t83 32q51 0 82.5 -31.5t31.5 -85.5q0 -52 -32 -84.5t-82 -32.5z" />
    <glyph glyph-name="ellipsis" unicode="&#x2026;" horiz-adv-x="676" 
d="M49 114h78l-24 -114h-78zM271 114h78l-23 -114h-79zM494 114h78l-24 -114h-78z" />
    <glyph glyph-name="perthousand" unicode="&#x2030;" horiz-adv-x="860" 
d="M182 363q-44 0 -66 28t-22 81q0 45 10.5 90.5t31 81.5t51.5 58.5t71 22.5q44 0 65.5 -27.5t21.5 -79.5q0 -45 -10.5 -90.5t-31 -82t-51 -59.5t-70.5 -23zM521 715h58l-455 -715h-61zM189 402q26 0 45.5 22.5t32.5 55.5t20 70.5t7 67.5q0 68 -45 68q-25 0 -44.5 -22.5
t-33 -55.5t-20 -70t-6.5 -66q0 -37 11 -53.5t33 -16.5zM386 -10q-44 0 -65.5 28t-21.5 81q0 45 10.5 90.5t30.5 81.5t51 58.5t71 22.5q44 0 65.5 -27.5t21.5 -79.5q0 -45 -10.5 -90.5t-30.5 -82t-50.5 -59.5t-71.5 -23zM654 -10q-44 0 -65.5 28t-21.5 81q0 45 10.5 90.5
t31 81.5t51.5 58.5t71 22.5q43 0 65 -27.5t22 -79.5q0 -45 -10.5 -90.5t-31 -82t-51 -59.5t-71.5 -23zM393 29q26 0 45.5 23t33 56t20 70.5t6.5 66.5q0 68 -45 68q-25 0 -44.5 -22.5t-33 -55.5t-20 -70t-6.5 -66q0 -37 11 -53.5t33 -16.5zM662 29q26 0 45.5 23t32.5 56
t20 70.5t7 66.5q0 68 -45 68q-25 0 -44.5 -22.5t-33 -55.5t-20 -70t-6.5 -66q0 -37 11 -53.5t33 -16.5z" />
    <glyph glyph-name="guilsinglleft" unicode="&#x2039;" horiz-adv-x="321" 
d="M58 271l240 223l16 -40l-169 -183l89 -187l-32 -36z" />
    <glyph glyph-name="guilsinglright" unicode="&#x203a;" horiz-adv-x="321" 
d="M19 87l168 184l-90 186l33 37l145 -223l-241 -223z" />
    <glyph glyph-name="fraction" unicode="&#x2044;" horiz-adv-x="29" 
d="M241 715h57l-459 -715h-61z" />
    <glyph glyph-name="Euro" unicode="&#x20ac;" 
d="M463 723q36 0 61 -6t41 -14q18 -9 29 -20l-9 -86q-13 18 -32 33q-17 13 -40.5 23t-56.5 10q-34 0 -64.5 -16t-55.5 -44t-45 -65.5t-35 -80.5h251l-11 -56h-257q-6 -23 -10 -46t-7 -46h254l-12 -56h-248q0 -9 -0.5 -18.5t-0.5 -18.5q0 -72 29 -115t98 -43q33 0 60 5.5
t47 11.5q23 7 41 17l-22 -58q-16 -12 -38 -22q-21 -9 -49 -15.5t-66 -6.5q-47 0 -80.5 17t-55 47t-31.5 71t-10 90v38h-92l13 56h84q3 23 7.5 46t9.5 46h-82l12 56h87q19 56 47 104.5t64 84.5t80 56.5t95 20.5z" />
    <glyph glyph-name="trademark" unicode="&#x2122;" horiz-adv-x="805" 
d="M219 674h-105l3 41h267l4 -41h-106v-300h-63v300zM438 715h79l86 -262l89 262h77v-341h-62v251l-85 -251h-54l-85 250v-250h-45v341z" />
    <glyph glyph-name="partialdiff" unicode="&#x2202;" 
d="M226 -10q-37 0 -69 12.5t-55.5 36t-37 56.5t-13.5 75q0 57 19.5 109.5t54 92t82.5 63.5t105 24q40 0 68 -12t46 -30t27 -38.5t11 -37.5q8 39 12 72.5t4 62.5q0 52 -11.5 88t-31.5 58.5t-47.5 33t-59.5 10.5q-33 0 -60 -7.5t-46 -15.5q-23 -11 -41 -24l21 72q16 10 37 17
q19 7 44.5 12t59.5 5q95 0 154 -62t59 -187q0 -84 -22 -170.5t-64 -156.5t-104 -114.5t-142 -44.5zM240 45q42 0 77 21t60.5 54t39.5 74.5t14 82.5q0 57 -33.5 90.5t-85.5 33.5q-43 0 -77 -20t-56.5 -52t-34.5 -73.5t-12 -85.5q0 -61 29.5 -93t78.5 -32z" />
    <glyph glyph-name="product" unicode="&#x220f;" horiz-adv-x="602" 
d="M139 658h-93l4 57h501l5 -57h-92v-658h-82v658h-161v-658h-82v658z" />
    <glyph glyph-name="summation" unicode="&#x2211;" horiz-adv-x="602" 
d="M67 -63l253 357l-253 362v59h470v-157h-56v107h-333l253 -371l-253 -367h333v107h56v-157h-470v60z" />
    <glyph glyph-name="minus" unicode="&#x2212;" 
d="M73 298h433v-59h-433v59z" />
    <glyph glyph-name="radical" unicode="&#x221a;" horiz-adv-x="601" 
d="M107 433h-85l2 53h139l117 -407l176 646h140v-54h-97l-188 -671h-72z" />
    <glyph glyph-name="infinity" unicode="&#x221e;" horiz-adv-x="836" 
d="M600 462q41 0 74.5 -14t57 -39.5t36.5 -61.5t13 -80t-13.5 -80t-37.5 -62t-58 -40t-75 -14q-40 0 -68 12.5t-49 33t-36 47.5t-28 55q-13 -28 -28.5 -55t-36.5 -47.5t-48.5 -33t-66.5 -12.5q-41 0 -74.5 14t-57 39.5t-36.5 62t-13 80.5t13.5 79.5t37.5 61.5t58 40t75 14
q39 0 67.5 -11.5t49.5 -30t36 -43t27 -51.5q14 27 30.5 51.5t38 43t49 30t63.5 11.5zM240 139q29 0 51.5 11t40 29.5t32 43t27.5 50.5q-11 24 -24.5 46t-31 38.5t-40.5 26t-54 9.5q-58 0 -93 -33t-35 -93t34.5 -94t92.5 -34zM595 140q58 0 93 33.5t35 93.5t-34.5 93
t-92.5 33q-31 0 -54.5 -9.5t-41.5 -26t-32 -38.5t-26 -46q12 -26 25 -50t30.5 -42.5t41 -29.5t56.5 -11z" />
    <glyph glyph-name="integral" unicode="&#x222b;" horiz-adv-x="381" 
d="M76 -202q-15 0 -27 2.5t-20 5.5q-10 4 -18 8l-5 53q6 -2 14 -4q6 -1 14 -2t17 -1q36 0 56 21t20 70v613q0 76 43 115.5t107 39.5q37 0 62 -9.5t26 -10.5l6 -61q-10 6 -23 10q-11 4 -26 7t-33 3q-17 0 -32 -4t-26.5 -14t-18 -27.5t-6.5 -44.5v-612q0 -42 -10.5 -72
t-28 -49t-41 -28t-50.5 -9z" />
    <glyph glyph-name="approxequal" unicode="&#x2248;" 
d="M384 284q-34 0 -56 11.5t-40.5 25.5t-37 25.5t-45.5 11.5q-24 0 -45 -11t-36 -24q-19 -16 -34 -36l14 63q17 20 39 36q19 15 43 25.5t53 10.5q33 0 55.5 -11.5t41 -25.5t37.5 -25.5t45 -11.5q25 0 46 11t37 25q18 15 34 35l-13 -62q-18 -20 -40 -36q-20 -15 -44.5 -26
t-53.5 -11zM350 123q-34 0 -56 11.5t-40.5 25.5t-37 25.5t-45.5 11.5q-24 0 -45 -11t-36 -24q-19 -16 -34 -36l13 63q18 20 40 37q19 14 43 25t53 11q34 0 56 -11.5t41 -26t37.5 -26t44.5 -11.5q24 0 45 11t38 25q18 16 34 36l-13 -64q-18 -20 -40 -36q-20 -15 -44.5 -25.5
t-53.5 -10.5z" />
    <glyph glyph-name="notequal" unicode="&#x2260;" 
d="M338 319l-31 -101h199v-58h-217l-35 -110h-59l34 110h-156v58h174l31 101h-205v58h223l34 109h60l-34 -109h150v-58h-168z" />
    <glyph glyph-name="lessequal" unicode="&#x2264;" 
d="M72 274v60l434 161v-66l-359 -125l359 -125v-65zM72 58h434v-58h-434v58z" />
    <glyph glyph-name="greaterequal" unicode="&#x2265;" 
d="M72 179l359 125l-359 125v66l434 -161v-60l-434 -160v65zM72 58h434v-58h-434v58z" />
    <glyph glyph-name="lozenge" unicode="&#x25ca;" 
d="M25 288l265 274l264 -274l-264 -274zM476 288l-186 194l-187 -194l187 -194z" />
    <glyph glyph-name="eight.dnom" horiz-adv-x="299" 
d="M115 -10q-48 0 -75 22t-27 59q0 24 8.5 42t20.5 31t26 21t26 12q-16 8 -25.5 24.5t-9.5 37.5q0 24 9.5 44.5t26.5 36t40 24.5t49 9q44 0 68.5 -20.5t24.5 -55.5q0 -32 -19.5 -59t-49.5 -41q46 -16 46 -68q0 -26 -11 -48t-29.5 -37.5t-44 -24.5t-54.5 -9zM156 194
q26 0 47 23t21 55q0 43 -46 43q-30 0 -48.5 -19.5t-18.5 -54.5q0 -22 11.5 -34.5t33.5 -12.5zM124 28q36 0 58 22t22 53q0 24 -15.5 37t-42.5 13q-36 0 -59 -21t-23 -56q0 -24 15.5 -36t44.5 -12z" />
    <glyph glyph-name="eight.osf" 
d="M247 -10q-93 0 -148.5 43t-55.5 119q0 43 13.5 77.5t38 61.5t57.5 46t72 31q-12 4 -27 13t-28.5 24.5t-23 38.5t-9.5 54q0 50 19 91.5t52 71.5t78 47t98 17q85 0 132 -40t47 -109q0 -37 -11.5 -69.5t-32 -59t-48.5 -46.5t-60 -31q14 -4 33.5 -12.5t37 -24.5t30 -41
t12.5 -63q0 -54 -22 -98t-59.5 -75.5t-87.5 -48.5t-107 -17zM326 395q33 0 61 14.5t48.5 39t32.5 56.5t12 66q0 48 -26.5 74t-80.5 26q-37 0 -66 -13.5t-49 -36.5t-30.5 -53.5t-10.5 -65.5q0 -51 30 -79t79 -28zM258 44q41 0 74.5 13.5t57.5 37t37.5 56t13.5 69.5
q0 56 -36 84t-95 28q-39 0 -73 -12.5t-59 -36t-39 -55.5t-14 -71q0 -54 34.5 -83.5t98.5 -29.5z" />
    <glyph glyph-name="five.dnom" horiz-adv-x="299" 
d="M108 -10q-26 0 -45 6t-31 13q-15 8 -24 19l3 48q12 -12 27 -21q14 -9 33 -15.5t44 -6.5q35 0 57 22t22 62q0 29 -24 44.5t-78 20.5l-42 4l54 156h171l-5 -44h-140l-26 -77l16 -1q65 -5 97 -30.5t32 -67.5q0 -29 -11 -53.5t-30 -42t-45 -27t-55 -9.5z" />
    <glyph glyph-name="five.osf" 
d="M197 -202q-52 0 -90.5 10.5t-63.5 23.5q-30 16 -50 35l8 82q23 -24 54 -43q28 -18 65 -30.5t85 -12.5q42 0 75.5 14.5t57 39.5t36 59t12.5 73q0 37 -15.5 62t-44.5 41t-70 25t-93 13l-74 7l102 290h335l-9 -70h-290l-59 -167l46 -4q130 -12 195.5 -56t65.5 -132
q0 -55 -22 -103t-59.5 -82.5t-88 -54.5t-108.5 -20z" />
    <glyph glyph-name="four.dnom" horiz-adv-x="299" 
d="M157 86h-151l6 31l195 225h57l-47 -217h50l-9 -39h-49l-18 -86h-51zM166 125l32 151l-130 -151h98z" />
    <glyph glyph-name="four.osf" 
d="M308 0h-320l10 50l402 436h91l-91 -428h104l-12 -58h-105l-41 -192h-78zM321 58l70 334l-314 -334h244z" />
    <glyph glyph-name="i.loclTRK" horiz-adv-x="230" 
d="M175 705h77l-23 -111h-78zM127 486h79l-103 -486h-80z" />
    <glyph glyph-name="nine.dnom" horiz-adv-x="299" 
d="M91 -10q-17 0 -29 2.5t-20 5.5q-10 4 -16 9l5 44q6 -6 15 -10q9 -5 21 -8t30 -3q38 0 72 34.5t48 94.5q-15 -17 -37 -30.5t-51 -13.5q-41 0 -62.5 23.5t-21.5 64.5q0 32 11 58.5t29 46.5t42 31t50 11q48 0 73 -32t25 -90q0 -47 -13 -90t-37 -76t-58 -52.5t-76 -19.5z
M144 154q18 0 32.5 8t25 21.5t16 30.5t5.5 36q0 28 -13.5 45.5t-38.5 17.5q-18 0 -32 -10t-23.5 -25t-14 -34t-4.5 -37q0 -53 47 -53z" />
    <glyph glyph-name="nine.osf" 
d="M145 -202q-34 0 -58 5t-40 11q-18 7 -30 16l10 73q13 -13 31 -23q17 -9 40 -15.5t56 -6.5q41 0 83 16t78.5 52t66 94t44.5 143q-9 -16 -26 -36t-42.5 -37t-58.5 -28.5t-74 -11.5q-73 0 -120 40.5t-47 123.5q0 58 20 109.5t55.5 89.5t83 60.5t101.5 22.5q88 0 142 -55
t54 -174q0 -92 -26 -176.5t-74 -149.5t-116 -104t-153 -39zM252 110q39 0 72 15.5t57 42t37.5 62.5t13.5 77q0 62 -32.5 97.5t-91.5 35.5q-40 0 -71.5 -19t-53 -49.5t-32.5 -69.5t-11 -79q0 -54 28 -83.5t84 -29.5z" />
    <glyph glyph-name="one.dnom" horiz-adv-x="299" 
d="M4 39h94l53 248l-84 -45l14 46l98 54h36l-64 -303h83l-10 -39h-225z" />
    <glyph glyph-name="one.osf" horiz-adv-x="363" 
d="M239 405l-173 -93l20 66l194 108h58l-102 -486h-83z" />
    <glyph glyph-name="seven.dnom" horiz-adv-x="300" 
d="M237 300h-179l11 42h233l-7 -37l-203 -305h-53z" />
    <glyph glyph-name="seven.osf" 
d="M476 422h-380l20 64h459l-14 -64l-404 -614h-81z" />
    <glyph glyph-name="six.dnom" horiz-adv-x="299" 
d="M125 -10q-49 0 -74 32t-25 90q0 47 13 90t37 76t58 52.5t76 19.5q17 0 29.5 -2.5t20.5 -5.5q9 -4 16 -9l-6 -44q-6 6 -15 11q-9 4 -21 7t-30 3q-38 0 -72 -34.5t-48 -94.5q15 17 37 30.5t51 13.5q42 0 63.5 -23.5t21.5 -64.5q0 -31 -11 -58t-29 -47t-42 -31t-50 -11z
M130 28q18 0 32 10t23.5 25t14 33.5t4.5 36.5q0 53 -47 53q-35 0 -57 -29t-22 -67q0 -28 14 -45t38 -17z" />
    <glyph glyph-name="six.osf" 
d="M263 -10q-43 0 -79 14t-61.5 43.5t-39.5 75t-14 107.5q0 94 26 183t74 158.5t117 111.5t156 42q34 0 58 -5.5t40 -11.5q18 -7 30 -17l-9 -72q-13 13 -31 24q-17 9 -40.5 16t-56.5 7q-40 0 -82.5 -17t-80 -55t-67 -100.5t-45.5 -152.5q8 17 25.5 37.5t43 38.5t59 30
t74.5 12q73 0 118 -42.5t45 -127.5q0 -60 -19.5 -114t-54.5 -95t-82.5 -65.5t-103.5 -24.5zM271 45q41 0 73.5 21t54.5 55t33.5 76t11.5 84q0 58 -28 89t-83 31q-40 0 -73.5 -17.5t-58 -46.5t-38.5 -68t-14 -82q0 -66 32.5 -104t89.5 -38z" />
    <glyph glyph-name="three.dnom" horiz-adv-x="299" 
d="M113 -10q-27 0 -46 6t-31 13q-15 8 -24 19l3 48q11 -12 27 -21q14 -9 32.5 -15.5t43.5 -6.5q38 0 61 22.5t23 57.5q0 45 -51 45h-59l7 35h54q30 0 52 20.5t22 54.5q0 42 -50 42q-25 0 -46.5 -6.5t-38.5 -14.5q-19 -10 -36 -22l15 48q14 11 32 19q16 8 37 13.5t47 5.5
q45 0 69.5 -20.5t24.5 -55.5q0 -21 -7 -37t-17 -28t-21.5 -20.5t-21.5 -13.5q14 -6 27.5 -21t13.5 -44q0 -27 -11 -49.5t-30.5 -39t-45.5 -25.5t-55 -9z" />
    <glyph glyph-name="three.osf" 
d="M190 -202q-53 0 -90.5 10.5t-61.5 22.5q-29 15 -48 34l10 83q19 -24 48 -42q26 -17 62.5 -29.5t87.5 -12.5q41 0 75 13t58 35.5t37.5 53.5t13.5 67q0 50 -32.5 73t-88.5 23h-109l10 53h100q37 0 68 12.5t53.5 34.5t35.5 51t13 62q0 41 -28 65t-86 24q-46 0 -86.5 -12.5
t-71.5 -27.5q-35 -18 -65 -40l20 73q28 20 63 36q32 14 70.5 24.5t85.5 10.5q89 0 136.5 -36.5t47.5 -102.5q0 -36 -13 -67.5t-34.5 -56.5t-50 -43.5t-58.5 -29.5q11 -3 28.5 -10t34.5 -21t29.5 -36.5t12.5 -57.5q0 -51 -22 -94.5t-60 -75t-88.5 -49t-106.5 -17.5z" />
    <glyph glyph-name="two.dnom" horiz-adv-x="299" 
d="M0 5q8 41 37 72t86 69l29 19q33 22 53.5 45t20.5 56q0 44 -50 44q-25 0 -46.5 -6.5t-38.5 -14.5q-19 -10 -36 -22l15 48q14 11 31 19q16 8 37 13.5t47 5.5q44 0 69 -21t25 -60q0 -46 -28.5 -78.5t-69.5 -57.5l-30 -19q-40 -26 -59.5 -44.5t-28.5 -33.5h174l-11 -39h-227z
" />
    <glyph glyph-name="two.osf" 
d="M15 6q8 37 28 67t48.5 53.5t65 41t77.5 29.5l59 18q32 10 60 21.5t49 27.5t33 38t12 52q0 37 -29.5 57t-89.5 20q-49 0 -91.5 -13t-73.5 -28q-37 -18 -68 -41l23 78q29 20 65 35q33 14 73.5 24.5t90.5 10.5q94 0 139 -36t45 -100q0 -38 -15 -68.5t-41 -54.5t-62 -41.5
t-77 -28.5l-62 -17q-57 -15 -100 -40t-60 -54h368l-16 -57h-451v6z" />
    <glyph glyph-name="zero.dnom" horiz-adv-x="299" 
d="M112 -10q-44 0 -65.5 28t-21.5 81q0 45 10.5 90.5t30.5 81.5t51 58.5t71 22.5q44 0 65.5 -27.5t21.5 -79.5q0 -45 -10.5 -90.5t-31 -82t-51 -59.5t-70.5 -23zM119 29q26 0 45.5 23t33 56t20 70.5t6.5 66.5q0 68 -45 68q-25 0 -44.5 -22.5t-33 -55.5t-20 -70t-6.5 -66
q0 -37 11 -53.5t33 -16.5z" />
    <glyph glyph-name="zero.osf" 
d="M234 -9q-85 0 -134 44t-49 132q0 69 20 129.5t57.5 104.5t92 69.5t123.5 25.5q88 0 136 -43t48 -130q0 -69 -20 -129.5t-58 -105.5t-92.5 -71t-123.5 -26zM248 47q50 0 87.5 23t63 61t38.5 86.5t13 98.5q0 63 -31.5 92t-88.5 29q-49 0 -87 -23t-63.5 -61t-38.5 -86.5
t-13 -98.5q0 -63 31.5 -92t88.5 -29z" />
    </font>
</defs>
</svg>
