<?xml version="1.0" standalone="no"?>
<!DOCTYPE svg PUBLIC "-//W3C//DTD SVG 1.1//EN" "http://www.w3.org/Graphics/SVG/1.1/DTD/svg11.dtd" >
<svg xmlns="http://www.w3.org/2000/svg">
<metadata>Generated by IcoMoon</metadata>
<defs>
<font id="master_touchtable_big" horiz-adv-x="1024">
<font-face units-per-em="1024" ascent="819.8005865102639" descent="-204.19941348973606" />
<missing-glyph horiz-adv-x="1024" />
<glyph unicode="&#x20;" d="" />
<glyph unicode="&#xe900;" glyph-name="drag" d="M476.385 538.14c0-41.797-31.892-75.681-71.229-75.681s-71.229 33.884-71.229 75.681c0 41.797 31.892 75.681 71.229 75.681s71.229-33.884 71.229-75.681zM690.074 538.14c0-41.797-31.892-75.681-71.229-75.681s-71.229 33.884-71.229 75.681c0 41.797 31.892 75.681 71.229 75.681s71.229-33.884 71.229-75.681zM476.385 756.28c0-41.797-31.892-75.681-71.229-75.681s-71.229 33.884-71.229 75.681c0 41.797 31.892 75.681 71.229 75.681s71.229-33.884 71.229-75.681zM690.074 756.28c0-41.797-31.892-75.681-71.229-75.681s-71.229 33.884-71.229 75.681c0 41.797 31.892 75.681 71.229 75.681s71.229-33.884 71.229-75.681zM476.385 320c0-41.797-31.892-75.681-71.229-75.681s-71.229 33.884-71.229 75.681c0 41.797 31.892 75.681 71.229 75.681s71.229-33.884 71.229-75.681zM690.074 320c0-41.797-31.892-75.681-71.229-75.681s-71.229 33.884-71.229 75.681c0 41.797 31.892 75.681 71.229 75.681s71.229-33.884 71.229-75.681zM476.385 101.86c0-41.797-31.892-75.681-71.229-75.681s-71.229 33.884-71.229 75.681c0 41.797 31.892 75.681 71.229 75.681s71.229-33.884 71.229-75.681zM690.074 101.86c0-41.797-31.892-75.681-71.229-75.681s-71.229 33.884-71.229 75.681c0 41.797 31.892 75.681 71.229 75.681s71.229-33.884 71.229-75.681zM476.385-116.28c0-41.797-31.892-75.681-71.229-75.681s-71.229 33.884-71.229 75.681c0 41.797 31.892 75.681 71.229 75.681s71.229-33.884 71.229-75.681zM690.074-116.28c0-41.797-31.892-75.681-71.229-75.681s-71.229 33.884-71.229 75.681c0 41.797 31.892 75.681 71.229 75.681s71.229-33.884 71.229-75.681z" />
<glyph unicode="&#xe901;" glyph-name="info" d="M711.091-191.949v51.195c-91.013 11.377-102.39 22.753-102.39 125.143v529.013c-85.325-22.753-187.714-45.507-284.416-56.883v-45.507c73.948-11.377 85.325-17.065 85.325-119.455v-307.169c0-108.078-11.377-119.455-102.39-125.143v-51.195h403.87zM500.623 615.792c62.571 0 113.766 51.195 113.766 108.078 0 62.571-45.507 108.078-108.078 108.078-56.883 0-108.078-45.507-108.078-108.078-11.377-62.571 39.818-108.078 102.39-108.078z" />
<glyph unicode="&#xe902;" glyph-name="turnarticle" d="M512-208.165c-248.548 0-450.494 201.945-450.494 450.494 0 7.767 0 15.534 0 23.301l85.438-7.767c0-7.767 0-15.534 0-23.301 0-194.178 163.11-357.288 357.288-357.288s357.288 163.11 357.288 357.288-163.11 357.288-357.288 357.288v85.438c248.548 0 450.494-201.945 450.494-450.494s-194.178-434.959-442.727-434.959zM278.986 584.083c-46.603 31.069-46.603 77.671 0 108.74l155.343 108.74c46.603 31.069 77.671 7.767 77.671-38.836v-233.014c0-54.37-38.836-69.904-77.671-38.836l-155.343 93.206z" />
<glyph unicode="&#xe903;" d="M978.316 274.382h-932.632c-25.343 0-45.618 20.275-45.618 45.618s20.275 45.618 45.618 45.618h932.632c25.343 0 45.618-20.275 45.618-45.618s-20.275-45.618-45.618-45.618z" />
<glyph unicode="&#xe904;" d="M978.316-14.531h-932.632c-25.343 0-45.618 20.275-45.618 45.618s20.275 45.618 45.618 45.618h932.632c25.343 0 45.618-20.275 45.618-45.618s-20.275-45.618-45.618-45.618z" />
<glyph unicode="&#xe905;" d="M978.316 563.295h-932.632c-25.343 0-45.618 20.275-45.618 45.618s20.275 45.618 45.618 45.618h932.632c25.343 0 45.618-20.275 45.618-45.618s-20.275-45.618-45.618-45.618z" />
<glyph unicode="&#xe906;" glyph-name="burgermenu_alt" d="M978.308 563.291h-932.616c-25.343 0-45.617 20.274-45.617 45.617s20.274 45.617 45.617 45.617h932.616c25.343 0 45.617-20.274 45.617-45.617s-20.274-45.617-45.617-45.617zM45.692 274.383h932.616c25.343 0 45.617 20.274 45.617 45.617s-20.274 45.617-45.617 45.617h-932.616c-25.343 0-45.617-20.274-45.617-45.617s20.274-45.617 45.617-45.617zM978.308 76.709h-932.616c-25.343 0-45.617-20.274-45.617-45.617s20.274-45.617 45.617-45.617h932.616c25.343 0 45.617 20.274 45.617 45.617s-20.274 45.617-45.617 45.617z" />
<glyph unicode="&#xe907;" glyph-name="burgermenu22" d="M978.316 274.382h-932.632c-25.343 0-45.618 20.275-45.618 45.618s20.275 45.618 45.618 45.618h932.632c25.343 0 45.618-20.275 45.618-45.618s-20.275-45.618-45.618-45.618zM978.316-14.531h-932.632c-25.343 0-45.618 20.275-45.618 45.618s20.275 45.618 45.618 45.618h932.632c25.343 0 45.618-20.275 45.618-45.618s-20.275-45.618-45.618-45.618zM978.316 563.295h-932.632c-25.343 0-45.618 20.275-45.618 45.618s20.275 45.618 45.618 45.618h932.632c25.343 0 45.618-20.275 45.618-45.618s-20.275-45.618-45.618-45.618z" />
<glyph unicode="&#xe908;" glyph-name="close" d="M406.751 339.136l-354.019 487.972h191.362l162.657-220.066c19.136-28.704 38.272-57.408 57.408-86.113s38.272-57.408 57.408-86.113h9.568c19.136 28.704 38.272 57.408 57.408 86.113s38.272 57.408 57.408 86.113l153.089 220.066h181.794l-363.587-507.108 392.291-516.676h-191.362l-181.794 239.202c-19.136 28.704-38.272 57.408-66.977 95.681-19.136 28.704-47.84 66.977-66.977 95.681h-9.568c-19.136-28.704-38.272-57.408-66.977-95.681-19.136-28.704-38.272-57.408-66.977-95.681l-172.225-239.202h-181.794l401.859 535.813z" />
<glyph unicode="&#xe909;" d="M353.245 760.544c146.848 0 265.914-119.066 265.914-265.914s-119.066-265.914-265.914-265.914-265.914 119.066-265.914 265.914 119.066 265.914 265.914 265.914zM353.245 831.983c-186.537 0-337.353-150.817-337.353-337.353s150.817-333.385 337.353-333.385 337.353 150.817 337.353 337.353-154.786 333.385-337.353 333.385v0z" />
<glyph unicode="&#xe90a;" glyph-name="resize" d="M-0.998-49.927l874.823 874.823 77.42-77.42-874.823-874.823-77.42 77.42zM398.305-111.869l541.923 541.923 77.42-77.42-541.923-541.923-77.42 77.42zM790.396-111.875l154.834 154.834 77.42-77.42-154.834-154.834-77.42 77.42z" />
<glyph unicode="&#xe90b;" d="M735.144-117.538c-4.375 13.126-13.126 21.877-13.126 35.003-4.375 13.126-8.751 21.877-26.252 21.877-13.126 0-26.252 4.375-43.754 4.375-8.751 0-17.502 0-21.877-8.751s-8.751-17.502-13.126-21.877c-4.375-8.751-13.126-13.126-21.877-8.751-21.877 13.126-43.754 21.877-61.255 35.003-8.751 4.375-8.751 13.126-4.375 26.252 4.375 8.751 8.751 17.502 13.126 26.252s4.375 13.126 0 21.877c-8.751 13.126-21.877 26.252-30.628 39.378-4.375 8.751-13.126 8.751-21.877 8.751-8.751-4.375-17.502-4.375-26.252-8.751s-17.502 0-21.877 13.126c-8.751 21.877-13.126 48.129-17.502 70.006-4.375 8.751 4.375 17.502 13.126 17.502 8.751 4.375 17.502 4.375 26.252 8.751 8.751 0 13.126 8.751 13.126 17.502 0 17.502 4.375 30.628 4.375 48.129 0 8.751 0 17.502-8.751 21.877s-17.502 8.751-26.252 13.126c-8.751 4.375-13.126 13.126-8.751 21.877 13.126 21.877 21.877 43.754 35.003 61.255 4.375 8.751 13.126 8.751 21.877 4.375s17.502-8.751 26.252-13.126c8.751-4.375 13.126-4.375 21.877 0 13.126 8.751 26.252 21.877 39.378 30.628 4.375 4.375 8.751 8.751 8.751 17.502-4.375 8.751-4.375 17.502-8.751 26.252s0 17.502 8.751 21.877c21.877 8.751 48.129 13.126 74.381 21.877 8.751 0 17.502-4.375 17.502-13.126 4.375-8.751 4.375-17.502 8.751-26.252 0-8.751 8.751-13.126 17.502-13.126 17.502 0 30.628-4.375 48.129-4.375 8.751 0 17.502 0 21.877 8.751s8.751 17.502 13.126 26.252c4.375 8.751 13.126 13.126 21.877 8.751 21.877-13.126 43.754-26.252 65.631-39.378 8.751-4.375 8.751-13.126 4.375-21.877s-8.751-17.502-13.126-26.252c-4.375-8.751-4.375-13.126 0-21.877 8.751-13.126 21.877-26.252 30.628-39.378 4.375-8.751 13.126-8.751 21.877-8.751 8.751 4.375 17.502 4.375 26.252 8.751s17.502 0 21.877-8.751c8.751-21.877 13.126-48.129 21.877-74.381 4.375-8.751-4.375-17.502-13.126-17.502-8.751-4.375-17.502-4.375-26.252-8.751-8.751 0-13.126-8.751-13.126-13.126 0-17.502-4.375-35.003-8.751-52.505 0-8.751 0-13.126 8.751-17.502s17.502-8.751 26.252-13.126c8.751-4.375 13.126-13.126 8.751-21.877-13.126-21.877-21.877-43.754-35.003-61.255-4.375-8.751-13.126-8.751-21.877-4.375s-17.502 8.751-26.252 13.126c-8.751 4.375-13.126 4.375-21.877 0-13.126-8.751-26.252-21.877-39.378-30.628-8.751-4.375-8.751-13.126-8.751-21.877 4.375-8.751 4.375-17.502 8.751-26.252 4.375-13.126 0-21.877-13.126-26.252-17.502-4.375-35.003-8.751-52.505-17.502-4.375 0-4.375 0-8.751-4.375-8.751-4.375-13.126-4.375-21.877-4.375zM708.892 328.751c-87.508 0-161.889-74.381-161.889-161.889s74.381-157.514 161.889-157.514c87.508 0 157.514 74.381 157.514 157.514 0 87.508-70.006 161.889-157.514 161.889z" />
<glyph unicode="&#xe90c;" d="M498.874-21.28c4.375 4.375 4.375 8.751 8.751 13.126-4.375 8.751-8.751 13.126-17.502 21.877-4.375 0-8.751-4.375-13.126-4.375h-4.375c-30.628-8.751-56.88 8.751-65.631 35.003s-13.126 48.129-17.502 70.006c-8.751 26.252 8.751 56.88 39.378 65.631 4.375 0 13.126 4.375 17.502 4.375 0 8.751 0 17.502 4.375 26.252-4.375 4.375-8.751 4.375-17.502 8.751-26.252 17.502-35.003 48.129-21.877 70.006 13.126 26.252 26.252 43.754 35.003 65.631 17.502 26.252 43.754 35.003 74.381 17.502l4.375-4.375c4.375 0 8.751-4.375 8.751-4.375 8.751 4.375 13.126 8.751 21.877 17.502 0 0 0 4.375 0 4.375 0 4.375 0 8.751-4.375 8.751-8.751 30.628 4.375 56.88 35.003 65.631 26.252 8.751 48.129 13.126 74.381 21.877 21.877 4.375 48.129-4.375 56.88-26.252v301.901c0 39.378-30.628 70.006-70.006 70.006h-546.923c-39.378 0-70.006-30.628-70.006-70.006v-551.298c0-17.502 4.375-35.003 17.502-43.754v0 0c0 0 0 0 0 0l323.778-358.781 118.135 126.886c-4.375 21.877 0 35.003 8.751 48.129z" />
<glyph unicode="&#xe90d;" d="M735.144-117.538c-4.375 13.126-13.126 21.877-13.126 35.003-4.375 13.126-8.751 21.877-26.252 21.877-13.126 0-26.252 4.375-43.754 4.375-8.751 0-17.502 0-21.877-8.751s-8.751-17.502-13.126-21.877c-4.375-8.751-13.126-13.126-21.877-8.751-21.877 13.126-43.754 21.877-61.255 35.003-8.751 4.375-8.751 13.126-4.375 26.252 4.375 8.751 8.751 17.502 13.126 26.252s4.375 13.126 0 21.877c-8.751 13.126-21.877 26.252-30.628 39.378-4.375 8.751-13.126 8.751-21.877 8.751-8.751-4.375-17.502-4.375-26.252-8.751s-17.502 0-21.877 13.126c-8.751 21.877-13.126 48.129-17.502 70.006-4.375 8.751 4.375 17.502 13.126 17.502 8.751 4.375 17.502 4.375 26.252 8.751 8.751 0 13.126 8.751 13.126 17.502 0 17.502 4.375 30.628 4.375 48.129 0 8.751 0 17.502-8.751 21.877s-17.502 8.751-26.252 13.126c-8.751 4.375-13.126 13.126-8.751 21.877 13.126 21.877 21.877 43.754 35.003 61.255 4.375 8.751 13.126 8.751 21.877 4.375s17.502-8.751 26.252-13.126c8.751-4.375 13.126-4.375 21.877 0 13.126 8.751 26.252 21.877 39.378 30.628 4.375 4.375 8.751 8.751 8.751 17.502-4.375 8.751-4.375 17.502-8.751 26.252s0 17.502 8.751 21.877c21.877 8.751 48.129 13.126 74.381 21.877 8.751 0 17.502-4.375 17.502-13.126 4.375-8.751 4.375-17.502 8.751-26.252 0-8.751 8.751-13.126 17.502-13.126 17.502 0 30.628-4.375 48.129-4.375 8.751 0 17.502 0 21.877 8.751s8.751 17.502 13.126 26.252c4.375 8.751 13.126 13.126 21.877 8.751 21.877-13.126 43.754-26.252 65.631-39.378 8.751-4.375 8.751-13.126 4.375-21.877s-8.751-17.502-13.126-26.252c-4.375-8.751-4.375-13.126 0-21.877 8.751-13.126 21.877-26.252 30.628-39.378 4.375-8.751 13.126-8.751 21.877-8.751 8.751 4.375 17.502 4.375 26.252 8.751s17.502 0 21.877-8.751c8.751-21.877 13.126-48.129 21.877-74.381 4.375-8.751-4.375-17.502-13.126-17.502-8.751-4.375-17.502-4.375-26.252-8.751-8.751 0-13.126-8.751-13.126-13.126 0-17.502-4.375-35.003-8.751-52.505 0-8.751 0-13.126 8.751-17.502s17.502-8.751 26.252-13.126c8.751-4.375 13.126-13.126 8.751-21.877-13.126-21.877-21.877-43.754-35.003-61.255-4.375-8.751-13.126-8.751-21.877-4.375s-17.502 8.751-26.252 13.126c-8.751 4.375-13.126 4.375-21.877 0-13.126-8.751-26.252-21.877-39.378-30.628-8.751-4.375-8.751-13.126-8.751-21.877 4.375-8.751 4.375-17.502 8.751-26.252 4.375-13.126 0-21.877-13.126-26.252-17.502-4.375-35.003-8.751-52.505-17.502-4.375 0-4.375 0-8.751-4.375-8.751-4.375-13.126-4.375-21.877-4.375zM708.892 328.751c-87.508 0-161.889-74.381-161.889-161.889s74.381-157.514 161.889-157.514c87.508 0 157.514 74.381 157.514 157.514 0 87.508-70.006 161.889-157.514 161.889z" />
<glyph unicode="&#xe90e;" d="M498.874-21.28c4.375 4.375 4.375 8.751 8.751 13.126-4.375 8.751-8.751 13.126-17.502 21.877-4.375 0-8.751-4.375-13.126-4.375h-4.375c-30.628-8.751-56.88 8.751-65.631 35.003s-13.126 48.129-17.502 70.006c-8.751 26.252 8.751 56.88 39.378 65.631 4.375 0 13.126 4.375 17.502 4.375 0 8.751 0 17.502 4.375 26.252-4.375 4.375-8.751 4.375-17.502 8.751-26.252 17.502-35.003 48.129-21.877 70.006 13.126 26.252 26.252 43.754 35.003 65.631 17.502 26.252 43.754 35.003 74.381 17.502l4.375-4.375c4.375 0 8.751-4.375 8.751-4.375 8.751 4.375 13.126 8.751 21.877 17.502 0 0 0 4.375 0 4.375 0 4.375 0 8.751-4.375 8.751-8.751 30.628 4.375 56.88 35.003 65.631 26.252 8.751 48.129 13.126 74.381 21.877 21.877 4.375 48.129-4.375 56.88-26.252v301.901c0 39.378-30.628 70.006-70.006 70.006h-546.923c-39.378 0-70.006-30.628-70.006-70.006v-551.298c0-17.502 4.375-35.003 17.502-43.754v0 0c0 0 0 0 0 0l323.778-358.781 118.135 126.886c-4.375 21.877 0 35.003 8.751 48.129z" />
<glyph unicode="&#xe90f;" d="M564.566-191.326c-9.557 19.115-23.894 43.009-28.672 62.124-4.779 23.894-19.115 33.451-43.009 38.23-23.894 0-47.787 4.779-76.46 9.557-19.115 4.779-28.672 0-38.23-19.115-4.779-14.336-14.336-28.672-23.894-43.009-9.557-19.115-23.894-23.894-43.009-14.336-38.23 19.115-76.46 43.009-109.911 62.124-19.115 9.557-19.115 28.672-9.557 43.009s14.336 28.672 23.894 43.009c9.557 14.336 4.779 23.894-4.779 38.23-19.115 23.894-38.23 47.787-52.566 71.681-9.557 14.336-19.115 19.115-38.23 14.336-14.336-4.779-33.451-9.557-47.787-14.336-19.115-4.779-33.451 0-38.23 19.115-14.336 43.009-23.894 81.239-33.451 124.247-4.779 19.115 4.779 28.672 23.894 33.451s33.451 9.557 52.566 14.336c19.115 4.779 23.894 14.336 23.894 28.672 4.779 28.672 4.779 57.345 9.557 86.017 4.779 14.336 0 28.672-19.115 38.23-14.336 9.557-28.672 14.336-43.009 23.894s-23.894 23.894-14.336 43.009c19.115 38.23 43.009 76.46 66.902 114.69 9.557 14.336 23.894 19.115 43.009 9.557 14.336-9.557 28.672-14.336 43.009-23.894s23.894-9.557 38.23 4.779c23.894 19.115 47.787 38.23 71.681 57.345 9.557 9.557 19.115 19.115 14.336 33.451-4.779 19.115-9.557 33.451-14.336 52.566s0 33.451 19.115 38.23c43.009 14.336 86.017 23.894 129.026 33.451 14.336 4.779 28.672-4.779 33.451-23.894s9.557-33.451 14.336-52.566c4.779-14.336 14.336-23.894 28.672-23.894 28.672-4.779 57.345-4.779 86.017-9.557 19.115-4.779 28.672 0 38.23 19.115 9.557 14.336 14.336 28.672 23.894 43.009s23.894 19.115 38.23 14.336c38.23-19.115 81.239-43.009 119.469-66.902 14.336-9.557 14.336-23.894 4.779-43.009-9.557-14.336-19.115-28.672-23.894-47.787-9.557-9.557-9.557-19.115 0-33.451 19.115-23.894 38.23-47.787 57.345-71.681 9.557-14.336 19.115-19.115 33.451-14.336s33.451 9.557 47.787 14.336c19.115 4.779 33.451 0 38.23-19.115 14.336-43.009 23.894-86.017 33.451-129.026 4.779-19.115-4.779-28.672-23.894-33.451s-33.451-9.557-52.566-14.336c-14.336-4.779-19.115-14.336-23.894-28.672-4.779-28.672-9.557-62.124-9.557-90.796 0-14.336 0-28.672 14.336-33.451 14.336-9.557 28.672-14.336 43.009-23.894s23.894-23.894 14.336-43.009c-19.115-38.23-43.009-76.46-66.902-114.69-9.557-14.336-23.894-19.115-43.009-9.557-14.336 9.557-28.672 19.115-47.787 23.894 0 14.336-9.557 14.336-23.894 4.779-23.894-19.115-47.787-38.23-71.681-57.345-14.336-9.557-19.115-19.115-14.336-33.451s9.557-28.672 9.557-43.009 4.779-38.23-23.894-47.787c-28.672-9.557-62.124-19.115-95.575-28.672-4.779 0-9.557-4.779-14.336-4.779s-14.336 0-23.894 0zM512 606.725c-157.699 0-286.725-129.026-286.725-286.725s129.026-286.725 286.725-286.725c157.699 0 286.725 129.026 286.725 286.725s-129.026 286.725-286.725 286.725z" />
<glyph unicode="&#xe910;" d="M512 535.044c-119.469 0-215.044-95.575-215.044-215.044s95.575-215.044 215.044-215.044 215.044 95.575 215.044 215.044-95.575 215.044-215.044 215.044zM512 162.301c-86.017 0-157.699 71.681-157.699 157.699s71.681 157.699 157.699 157.699 157.699-71.681 157.699-157.699-71.681-157.699-157.699-157.699z" />
<glyph unicode="&#xe911;" d="M564.566-191.326c-9.557 19.115-23.894 43.009-28.672 62.124-4.779 23.894-19.115 33.451-43.009 38.23-23.894 0-47.787 4.779-76.46 9.557-19.115 4.779-28.672 0-38.23-19.115-4.779-14.336-14.336-28.672-23.894-43.009-9.557-19.115-23.894-23.894-43.009-14.336-38.23 19.115-76.46 43.009-109.911 62.124-19.115 9.557-19.115 28.672-9.557 43.009s14.336 28.672 23.894 43.009c9.557 14.336 4.779 23.894-4.779 38.23-19.115 23.894-38.23 47.787-52.566 71.681-9.557 14.336-19.115 19.115-38.23 14.336-14.336-4.779-33.451-9.557-47.787-14.336-19.115-4.779-33.451 0-38.23 19.115-14.336 43.009-23.894 81.239-33.451 124.247-4.779 19.115 4.779 28.672 23.894 33.451s33.451 9.557 52.566 14.336c19.115 4.779 23.894 14.336 23.894 28.672 4.779 28.672 4.779 57.345 9.557 86.017 4.779 14.336 0 28.672-19.115 38.23-14.336 9.557-28.672 14.336-43.009 23.894s-23.894 23.894-14.336 43.009c19.115 38.23 43.009 76.46 66.902 114.69 9.557 14.336 23.894 19.115 43.009 9.557 14.336-9.557 28.672-14.336 43.009-23.894s23.894-9.557 38.23 4.779c23.894 19.115 47.787 38.23 71.681 57.345 9.557 9.557 19.115 19.115 14.336 33.451-4.779 19.115-9.557 33.451-14.336 52.566s0 33.451 19.115 38.23c43.009 14.336 86.017 23.894 129.026 33.451 14.336 4.779 28.672-4.779 33.451-23.894s9.557-33.451 14.336-52.566c4.779-14.336 14.336-23.894 28.672-23.894 28.672-4.779 57.345-4.779 86.017-9.557 19.115-4.779 28.672 0 38.23 19.115 9.557 14.336 14.336 28.672 23.894 43.009s23.894 19.115 38.23 14.336c38.23-19.115 81.239-43.009 119.469-66.902 14.336-9.557 14.336-23.894 4.779-43.009-9.557-14.336-19.115-28.672-23.894-47.787-9.557-9.557-9.557-19.115 0-33.451 19.115-23.894 38.23-47.787 57.345-71.681 9.557-14.336 19.115-19.115 33.451-14.336s33.451 9.557 47.787 14.336c19.115 4.779 33.451 0 38.23-19.115 14.336-43.009 23.894-86.017 33.451-129.026 4.779-19.115-4.779-28.672-23.894-33.451s-33.451-9.557-52.566-14.336c-14.336-4.779-19.115-14.336-23.894-28.672-4.779-28.672-9.557-62.124-9.557-90.796 0-14.336 0-28.672 14.336-33.451 14.336-9.557 28.672-14.336 43.009-23.894s23.894-23.894 14.336-43.009c-19.115-38.23-43.009-76.46-66.902-114.69-9.557-14.336-23.894-19.115-43.009-9.557-14.336 9.557-28.672 19.115-47.787 23.894 0 14.336-9.557 14.336-23.894 4.779-23.894-19.115-47.787-38.23-71.681-57.345-14.336-9.557-19.115-19.115-14.336-33.451s9.557-28.672 9.557-43.009 4.779-38.23-23.894-47.787c-28.672-9.557-62.124-19.115-95.575-28.672-4.779 0-9.557-4.779-14.336-4.779s-14.336 0-23.894 0zM512 606.725c-157.699 0-286.725-129.026-286.725-286.725s129.026-286.725 286.725-286.725c157.699 0 286.725 129.026 286.725 286.725s-129.026 286.725-286.725 286.725z" />
<glyph unicode="&#xe912;" d="M512 535.044c-119.469 0-215.044-95.575-215.044-215.044s95.575-215.044 215.044-215.044 215.044 95.575 215.044 215.044-95.575 215.044-215.044 215.044zM512 162.301c-86.017 0-157.699 71.681-157.699 157.699s71.681 157.699 157.699 157.699 157.699-71.681 157.699-157.699-71.681-157.699-157.699-157.699z" />
<glyph unicode="&#xe913;" d="M702.385 776.924h-702.309v-511.924h122.692l-33.846-215.769 279.231 215.769h334.231z" />
<glyph unicode="&#xe914;" d="M1023.924 485h-262.308v-279.231h-334.231v-160.769h283.462l236.923-181.923-29.615 181.923h105.769z" />
<glyph unicode="&#xe915;" d="M702.385 776.924h-702.309v-511.924h122.692l-33.846-215.769 279.231 215.769h334.231z" />
<glyph unicode="&#xe916;" d="M1023.924 485h-262.308v-279.231h-334.231v-160.769h283.462l236.923-181.923-29.615 181.923h105.769z" />
<glyph unicode="&#xe917;" glyph-name="checkbox" d="M503.675 66.098l45.786 29.136c54.11 116.545 137.357 241.415 241.415 374.61s199.792 233.091 287.201 299.688l-24.974 29.136c-99.896-58.273-203.954-141.519-312.175-249.74-104.058-108.221-191.467-220.604-262.227-332.987l-16.649 41.623c-37.461 83.247-70.76 124.87-104.058 124.87-37.461 0-74.922-20.812-120.708-66.597 24.974-8.325 49.948-24.974 70.76-54.11 20.812-24.974 41.623-66.597 66.597-124.87l16.649-37.461c16.649-41.623 29.136-74.922 33.299-91.571 16.649 12.487 41.623 33.299 79.084 58.273zM886.61 523.954v-578.564h-749.22v749.22h699.272c37.461 29.136 70.76 58.273 108.221 83.247h-890.739v-915.713h915.713v757.544c-24.974-29.136-54.11-58.273-83.247-95.734z" />
<glyph unicode="&#xe918;" glyph-name="checkbox2" d="M1023.996-191.996h-1023.992v1023.992h1023.992v-1023.992zM93.094-98.906h837.812v837.812h-837.812v-837.812z" />
<glyph unicode="&#xe919;" glyph-name="checkbox3" d="M186.184 831.996h93.090v-93.090h-93.090v93.090zM372.365 831.996h93.090v-93.090h-93.090v93.090zM558.545 831.996h93.090v-93.090h-93.090v93.090zM744.726 831.996h93.090v-93.090h-93.090v93.090zM930.906 831.996h93.090v-93.090h-93.090v93.090zM930.906 87.274h93.090v-93.090h-93.090v93.090zM930.906 459.635h93.090v-93.090h-93.090v93.090zM930.906 645.816h93.090v-93.090h-93.090v93.090zM930.906 273.455h93.090v-93.090h-93.090v93.090zM930.906-98.906h-837.812v930.902h-93.090v-1023.992h1023.992v93.090h-46.545z" />
<glyph unicode="&#xe91a;" glyph-name="left" d="M1023.996 357.236h-544.578v288.58l-479.415-330.47 479.415-321.161v269.962h544.578z" />
<glyph unicode="&#xe91b;" glyph-name="left2" d="M1023.996 357.236h-544.578v288.58l-479.415-330.47 479.415-321.161v269.962h544.578z" />
<glyph unicode="&#xe91c;" glyph-name="right" d="M1023.996 324.655l-479.415 321.161v-269.962h-544.578v-93.090h544.578v-288.58z" />
<glyph unicode="&#xe91d;" glyph-name="right2" d="M1023.996 324.655l-479.415 321.161v-269.962h-544.578v-93.090h544.578v-288.58z" />
<glyph unicode="&#xe91e;" glyph-name="home" d="M512 831.97l-409.576-460.773v-563.167h307.182v237.554c0 32.798 26.59 59.389 59.389 59.389h86.011c32.798 0 59.389-26.59 59.389-59.389v0-237.554h307.182v563.167z" />
<glyph unicode="&#xe91f;" glyph-name="fullscreen" d="M409.604 734.973l-398.806 75.45 75.45-404.195 140.121 140.121 188.624-188.624 59.282 59.282-188.624 188.624zM808.409 82.872l-188.624 188.624-59.282-59.282 188.624-188.624-140.121-140.121 404.195-75.45-75.45 398.806zM619.785 368.503l188.624 188.624 129.342-123.953 75.45 398.806-404.195-75.45 140.121-140.121-188.624-188.624zM414.993 282.275l-188.624-188.624-140.121 140.121-75.45-404.195 398.806 75.45-123.953 129.342 188.624 188.624z" />
<glyph unicode="&#xe920;" glyph-name="fullscreen2" d="M76.265 450.72l375.821-76.254-70.807 375.821-130.72-130.72-179.741 179.741-54.467-54.467 179.741-179.741zM762.547-1.354l185.187-190.634 59.914 59.914-185.187 185.187 136.167 141.614-397.608 70.807 76.254-392.161zM947.735 831.988l-185.187-190.634-125.274 125.274-76.254-392.161 397.608 70.807-136.167 141.614 185.187 185.187zM70.819-159.308l179.741 179.741 130.72-130.72 70.807 375.821-375.821-76.254 119.827-114.38-179.741-179.741z" />
<glyph unicode="&#xe921;" glyph-name="measureaera" d="M1016.778 35.618l-465.675 622.084-53.322-39.102 430.127-572.318h-828.261l145.745 195.512 99.534 131.527 99.534-74.65 10.665 270.163-252.389-88.869 88.869-63.987-95.979-131.527-188.403-248.834c-7.108-10.665-7.108-21.328-3.555-35.547 7.108-10.665 17.774-17.774 28.439-17.774h959.787c10.665 0 24.883 7.108 28.439 17.774 7.108 10.665 7.108 24.883-3.555 35.547z" />
<glyph unicode="&#xe922;" glyph-name="measuredistance" d="M1023.945 320.024l-190.663 130.64v-109.455h-642.606v109.455l-190.663-130.64 190.663-130.64v95.332h642.606v-95.332z" />
<glyph unicode="&#xe923;" glyph-name="turnmap" d="M151.676 680.324c-196.059-196.059-201.358-513.992-10.598-715.35l-111.277-111.277h296.738v296.738l-111.277-111.277c-148.369 158.967-148.369 408.014 10.598 566.981 90.081 90.081 211.956 127.173 328.531 116.576l5.299 105.978c-148.369 15.897-296.738-37.092-408.014-148.369zM909.417 643.232l111.277 111.277h-296.738v-296.738l111.277 111.277c121.874-158.967 111.277-386.819-37.092-535.188-79.483-79.483-190.76-121.874-296.738-116.576l-5.299-105.978c137.771-5.299 275.542 42.391 381.52 148.369 185.461 185.461 196.059 482.199 31.793 683.557z" />
<glyph unicode="&#xe924;" d="M978.316 274.382h-932.632c-25.343 0-45.618 20.275-45.618 45.618s20.275 45.618 45.618 45.618h932.632c25.343 0 45.618-20.275 45.618-45.618s-20.275-45.618-45.618-45.618z" />
<glyph unicode="&#xe925;" d="M978.316-14.531h-932.632c-25.343 0-45.618 20.275-45.618 45.618s20.275 45.618 45.618 45.618h932.632c25.343 0 45.618-20.275 45.618-45.618s-20.275-45.618-45.618-45.618z" />
<glyph unicode="&#xe926;" d="M978.316 563.295h-932.632c-25.343 0-45.618 20.275-45.618 45.618s20.275 45.618 45.618 45.618h932.632c25.343 0 45.618-20.275 45.618-45.618s-20.275-45.618-45.618-45.618z" />
<glyph unicode="&#xe927;" d="M45.684 274.382h932.632c25.343 0 45.618 20.275 45.618 45.618s-20.275 45.618-45.618 45.618h-932.632c-25.343 0-45.618-20.275-45.618-45.618s20.275-45.618 45.618-45.618zM978.316 76.705h-932.632c-25.343 0-45.618-20.275-45.618-45.618s20.275-45.618 45.618-45.618h932.632c25.343 0 45.618 20.275 45.618 45.618s-20.275 45.618-45.618 45.618z" />
<glyph unicode="&#xe928;" d="M978.316 563.295h-932.632c-25.343 0-45.618 20.275-45.618 45.618s20.275 45.618 45.618 45.618h932.632c25.343 0 45.618-20.275 45.618-45.618s-20.275-45.618-45.618-45.618z" />
<glyph unicode="&#xe929;" glyph-name="lock" d="M490.41 794.982c-267.717 0-487.934-215.9-487.934-487.934s215.9-487.934 487.934-487.934 487.934 215.9 487.934 487.934-220.217 487.934-487.934 487.934zM93.153 307.045c0 220.217 177.037 401.574 401.574 401.574 94.996 0 185.675-34.545 254.762-90.677l-561.342-561.342c-64.77 69.087-94.996 155.447-94.996 250.445zM490.41-90.211c-94.996 0-185.675 34.545-254.762 90.677l561.342 561.342c56.135-69.087 90.677-155.447 90.677-254.762 4.317-220.217-177.037-397.257-397.257-397.257z" />
<glyph unicode="&#xe92a;" d="M1008.108-29.26l-158.755-162.723-277.82 365.135 71.44 71.44z" />
</font>
</defs>
</svg>
